Paulina Rubio - Me Gustas Tanto (Live) (TELEHIT.HD.1080i.DD2.0).-Crusha

Discussion in 'TELEHIT HD' started by Crusha, Feb 16, 2016.

  1. Crusha

    Crusha Well-Known Member Capper

    Joined:
    Oct 15, 2014
    Messages:
    2,350
    Likes Received:
    2,369
    [​IMG]

    Mediainfo
    General
    ID : 1 (0x1)
    Complete name : Paulina Rubio - Me Gustas Tanto (Live) (TELEHIT.HD.1080i.DD2.0).-Crusha.ts
    Format : MPEG-TS
    File size : 105 MiB
    Duration : 3mn 38s
    Overall bit rate mode : Variable
    Overall bit rate : 4 048 Kbps

    Video
    ID : 2238 (0x8BE)
    Menu ID : 857 (0x359)
    Format : AVC
    Format/Info : Advanced Video Codec
    Format profile : [email protected]
    Format settings, CABAC : Yes
    Format settings, ReFrames : 4 frames
    Format settings, GOP : M=3, N=24
    Codec ID : 27
    Duration : 3mn 38s
    Bit rate : 3 654 Kbps
    Width : 1 920 pixels
    Height : 1 080 pixels
    Display aspect ratio : 16:9
    Frame rate : 29.970 fps
    Standard : Component
    Color space : YUV
    Chroma subsampling : 4:2:0
    Bit depth : 8 bits
    Scan type : MBAFF
    Scan order : Top Field First
    Bits/(Pixel*Frame) : 0.059
    Stream size : 95.1 MiB (90%)
    Color range : Limited
    Color primaries : BT.709
    Transfer characteristics : BT.709
    Matrix coefficients : BT.709

    Audio
    ID : 3849 (0xF09)
    Menu ID : 857 (0x359)
    Format : AC-3
    Format/Info : Audio Coding 3
    Mode extension : CM (complete main)
    Format settings, Endianness : Big
    Codec ID : 6
    Duration : 3mn 38s
    Bit rate mode : Constant
    Bit rate : 192 Kbps
    Channel(s) : 2 channels
    Channel positions : Front: L R
    Sampling rate : 48.0 KHz
    Bit depth : 16 bits
    Compression mode : Lossy
    Stream size : 5.00 MiB (5%)
    Language : English

    Hidden Content:
    You must reply before you can see the hidden data contained here.
    Password:
    crusha
     
    revilo18 likes this.
  2. maurohachen

    maurohachen Member

    Joined:
    Feb 24, 2015
    Messages:
    402
    Likes Received:
    18
    chiquititas EN HD?
     
  3. tf135

    tf135 Well-Known Member

    Joined:
    Nov 14, 2014
    Messages:
    2,017
    Likes Received:
    112
    thank you
     
  4. dersullana

    dersullana Active Member

    Joined:
    Dec 21, 2015
    Messages:
    601
    Likes Received:
    41
  5. revilo18

    revilo18 Well-Known Member

    Joined:
    May 26, 2016
    Messages:
    1,644
    Likes Received:
    75
    THANK
     
  6. Danny82

    Danny82 Well-Known Member

    Joined:
    May 28, 2016
    Messages:
    1,709
    Likes Received:
    346
    Thank you!!!
     
  7. djg666

    djg666 Member

    Joined:
    Apr 9, 2014
    Messages:
    103
    Likes Received:
    2
    Gracias...
     
  8. hungquocphan

    hungquocphan Member

    Joined:
    Nov 1, 2013
    Messages:
    501
    Likes Received:
    18
    thank for share
     
  9. exterminador

    exterminador Well-Known Member

    Joined:
    Jul 3, 2016
    Messages:
    1,210
    Likes Received:
    84
  10. drp5862

    drp5862 Member

    Joined:
    Nov 7, 2013
    Messages:
    74
    Likes Received:
    4
    Muis Bien!
     
  11. Jroeternal

    Jroeternal Member

    Joined:
    Jan 11, 2016
    Messages:
    57
    Likes Received:
    3
  12. arttitorres

    arttitorres Member

    Joined:
    Mar 21, 2017
    Messages:
    71
    Likes Received:
    4