Paramore The Only Exception 720p Master HD

Discussion in 'MASTER & MASTER RIP' started by KallumLavigne, Jan 11, 2014.

  1. KallumLavigne

    KallumLavigne Well-Known Member

    Joined:
    Nov 18, 2013
    Messages:
    677
    Likes Received:
    1,272
    [​IMG]

    Code:
    Complete name                  : Paramore The Only Exception.mov
    Format                        : MPEG-4
    Format profile                : QuickTime
    File size                      : 167 MiB
    Duration                      : 4mn 30s
    Overall bit rate              : 5 189 Kbps
    
    Video
    ID                            : 2
    Format                        : AVC
    Codec ID/Info                  : Advanced Video Coding
    Duration                      : 4mn 30s
    Bit rate                      : 5 057 Kbps
    Width                          : 1 280 pixels
    Height                        : 720 pixels
    Display aspect ratio          : 16:9
    Frame rate mode                : Constant
    Frame rate                    : 23.976 fps
    Color space                    : YUV
    Chroma subsampling            : 4:2:0
    Bit depth                      : 8 bits
    Scan type                      : Progressive
    Bits/(Pixel*Frame)            : 0.229
    Stream size                    : 163 MiB (97%)
    
    Audio
    ID                            : 1
    Format                        : AAC
    Format/Info                    : Advanced Audio Codec
    Format profile                : LC
    Codec ID                      : 40
    Duration                      : 4mn 30s
    Bit rate mode                  : Constant
    Bit rate                      : 128 Kbps
    Channel count                  : 2 channels
    Channel positions              : Front: L R
    Sampling rate                  : 44.1 KHz
    Compression mode              : Lossy
    Stream size                    : 4.12 MiB (2%)
    Source stream size            : 4.12 MiB (2%)
    Language                      : English
    Hidden Content:
    You must reply before you can see the hidden data contained here.
     
  2. Loading...


  3. lucash

    lucash Member

    Joined:
    Nov 25, 2013
    Messages:
    211
    Likes Received:
    14
    thanks
     
  4. macskalacs

    macskalacs New Member

    Joined:
    Nov 29, 2013
    Messages:
    8
    Likes Received:
    0
    Thanks!
     
  5. alex

    alex Well-Known Member

    Joined:
    Nov 21, 2013
    Messages:
    4,538
    Likes Received:
    357
    thanks:)
     
  6. ericbook

    ericbook Member

    Joined:
    Jan 3, 2014
    Messages:
    202
    Likes Received:
    3
    thanks
     
  7. ryualviss

    ryualviss Active Member

    Joined:
    Jan 6, 2014
    Messages:
    151
    Likes Received:
    525
    much appreciated bro :)
     
  8. kyo23

    kyo23 Member

    Joined:
    Jan 31, 2014
    Messages:
    273
    Likes Received:
    5
    thanksss
     
  9. Grasdubide

    Grasdubide Active Member

    Joined:
    Feb 6, 2014
    Messages:
    62
    Likes Received:
    308
  10. Christian Robyn Silva

    Christian Robyn Silva New Member

    Joined:
    Feb 2, 2014
    Messages:
    3
    Likes Received:
    2
    Thanks so much :)
     
  11. diego_123

    diego_123 Member

    Joined:
    Dec 15, 2013
    Messages:
    518
    Likes Received:
    9
    Thaks!!
     
  12. reyouda1

    reyouda1 Member

    Joined:
    Feb 10, 2014
    Messages:
    145
    Likes Received:
    11
    OMG *_*
     
  13. MHT_

    MHT_ Member

    Joined:
    Feb 9, 2014
    Messages:
    64
    Likes Received:
    1
    Thanks!!
     
  14. iPobreBR

    iPobreBR New Member

    Joined:
    Mar 16, 2014
    Messages:
    6
    Likes Received:
    0
    Thank you.
     
  15. BalaK

    BalaK New Member

    Joined:
    Mar 22, 2014
    Messages:
    18
    Likes Received:
    0
    thanks
     
  16. Parce_18

    Parce_18 New Member

    Joined:
    Apr 1, 2014
    Messages:
    11
    Likes Received:
    0
    gracias.... descargando
     
  17. Attention

    Attention Active Member

    Joined:
    Nov 30, 2013
    Messages:
    563
    Likes Received:
    30
    надеюсь качество не огорчит
     
  18. DETOX

    DETOX K-POP fan ♡ V . I . P. Uploader

    Joined:
    Feb 20, 2014
    Messages:
    3,000
    Likes Received:
    20,158
    Thanks!
     
  19. Osh Şarif

    Osh Şarif Well-Known Member

    Joined:
    Dec 29, 2013
    Messages:
    351
    Likes Received:
    725
    Thanks dear <3
     
  20. tequest

    tequest Member

    Joined:
    May 8, 2014
    Messages:
    60
    Likes Received:
    15
    pretty song
     
  21. adam dark

    adam dark Video Music Lover <3 V . I . P.

    Joined:
    Dec 5, 2013
    Messages:
    2,572
    Likes Received:
    4,560