Paramore - That's What You Get (MTV BASE HD-1080i-DD2.0-Olgold)

Discussion in 'MTV BASE' started by DETOX, Jan 15, 2016.

  1. DETOX

    DETOX K-POP fan ♡ V . I . P. Uploader

    Joined:
    Feb 20, 2014
    Messages:
    2,997
    Likes Received:
    20,116
    [​IMG]
    Code:
    General
    ID                                       : 1070 (0x42E)
    Complete name                            : Paramore - That's What You Get (MTV BASE HD-1080i-DD2.0-Olgold).ts
    Format                                   : MPEG-TS
    File size                                : 155 MiB
    Duration                                 : 3mn 38s
    Overall bit rate mode                    : Variable
    Overall bit rate                         : 5 946 Kbps
    
    Video
    ID                                       : 110 (0x6E)
    Menu ID                                  : 8001 (0x1F41)
    Format                                   : AVC
    Format/Info                              : Advanced Video Codec
    Format profile                           : [email protected]
    Format settings, CABAC                   : Yes
    Format settings, ReFrames                : 4 frames
    Codec ID                                 : 27
    Duration                                 : 3mn 37s
    Bit rate                                 : 5 459 Kbps
    Width                                    : 1 920 pixels
    Height                                   : 1 080 pixels
    Display aspect ratio                     : 16:9
    Frame rate                               : 25.000 fps
    Standard                                 : Component
    Color space                              : YUV
    Chroma subsampling                       : 4:2:0
    Bit depth                                : 8 bits
    Scan type                                : MBAFF
    Scan order                               : Top Field First
    Bits/(Pixel*Frame)                       : 0.105
    Stream size                              : 142 MiB (91%)
    Encryption                               : Seca Mediaguard 1/2
    Color range                              : Limited
    Color primaries                          : BT.709
    Transfer characteristics                 : BT.709
    Matrix coefficients                      : BT.709
    
    Audio
    ID                                       : 121 (0x79)
    Menu ID                                  : 8001 (0x1F41)
    Format                                   : AC-3
    Format/Info                              : Audio Coding 3
    Mode extension                           : CM (complete main)
    Format settings, Endianness              : Big
    Codec ID                                 : 6
    Duration                                 : 3mn 38s
    Bit rate mode                            : Constant
    Bit rate                                 : 192 Kbps
    Channel(s)                               : 2 channels
    Channel positions                        : Front: L R
    Sampling rate                            : 48.0 KHz
    Bit depth                                : 16 bits
    Compression mode                         : Lossy
    Delay relative to video                  : -398ms
    Stream size                              : 5.00 MiB (3%)
    Language                                 : French
    Encryption                               : Seca Mediaguard 1/2
    
    Menu
    ID                                       : 100 (0x64)
    Menu ID                                  : 8001 (0x1F41)
    Duration                                 : 3mn 38s
    List                                     : 110 (0x6E) (AVC) / 121 (0x79) (AC-3, French)
    Language                                 :  / French
    Server: cloud.mail.ru
    Hidden Content:
    You must reply before you can see the hidden data contained here.
     
  2. adam dark

    adam dark Video Music Lover <3 V . I . P.

    Joined:
    Dec 5, 2013
    Messages:
    2,572
    Likes Received:
    4,554
  3. rhea

    rhea Well-Known Member

    Joined:
    Jan 6, 2014
    Messages:
    6,213
    Likes Received:
    516
    thank you so much! :)
     
  4. Ardy

    Ardy Active Member

    Joined:
    Dec 2, 2013
    Messages:
    137
    Likes Received:
    249
    Thanks!!
     
  5. kid

    kid New Member

    Joined:
    Jan 24, 2016
    Messages:
    26
    Likes Received:
    0
    uuuuu
     
  6. rvaldivia

    rvaldivia Member

    Joined:
    May 12, 2015
    Messages:
    68
    Likes Received:
    0
    thank youuuuuuuuuuuuuuu
     
  7. faz

    faz Member

    Joined:
    Jan 9, 2014
    Messages:
    269
    Likes Received:
    2
    thank you....
     
  8. yonita

    yonita Active Member

    Joined:
    Mar 7, 2016
    Messages:
    409
    Likes Received:
    38
    gracias gracias
     
  9. lpzion

    lpzion Active Member

    Joined:
    May 10, 2014
    Messages:
    242
    Likes Received:
    68
    thank you
     
  10. rdpillz

    rdpillz Member

    Joined:
    Mar 13, 2016
    Messages:
    64
    Likes Received:
    1
    thanks
     
  11. sideshow_bob

    sideshow_bob Well-Known Member

    Joined:
    Dec 20, 2013
    Messages:
    2,799
    Likes Received:
    166
    thanks man!
     
  12. elmerjhony

    elmerjhony Member

    Joined:
    Mar 23, 2016
    Messages:
    43
    Likes Received:
    0
  13. Pavulon

    Pavulon Well-Known Member

    Joined:
    Mar 22, 2016
    Messages:
    2,354
    Likes Received:
    197
    thanks
     
  14. 17elias17

    17elias17 Member

    Joined:
    Apr 18, 2016
    Messages:
    31
    Likes Received:
    0
    Thanks you
     
  15. shunic

    shunic Member

    Joined:
    Feb 13, 2016
    Messages:
    86
    Likes Received:
    0
    Thank you! :)
     
  16. Clannadan

    Clannadan Active Member

    Joined:
    Jun 17, 2016
    Messages:
    150
    Likes Received:
    27
    Muchas Gracias
     
  17. Jorge Barrionuevo

    Jorge Barrionuevo Well-Known Member

    Joined:
    Jun 9, 2015
    Messages:
    1,112
    Likes Received:
    397
    GRACIAS!
     
  18. kendoh

    kendoh Member

    Joined:
    Jun 28, 2016
    Messages:
    88
    Likes Received:
    2
    Great song!
     
  19. kassiu wehmuth

    kassiu wehmuth Member

    Joined:
    Jun 7, 2015
    Messages:
    206
    Likes Received:
    13
    amoooo
     
  20. JonVanBra

    JonVanBra Member

    Joined:
    Aug 17, 2016
    Messages:
    101
    Likes Received:
    7