Paramore - Misery Business (MTV PULSE HD-1080i-DD2.0-Olgold)

Discussion in 'MTV PULSE HD' started by DETOX, Jan 15, 2016.

  1. kassiu wehmuth

    kassiu wehmuth Member

    Joined:
    Jun 7, 2015
    Messages:
    157
    Likes Received:
    8
    hehehehe
     
    rcayul likes this.
  2. JonVanBra

    JonVanBra Member

    Joined:
    Aug 17, 2016
    Messages:
    58
    Likes Received:
    4
  3. micoox

    micoox New Member

    Joined:
    Sep 21, 2014
    Messages:
    15
    Likes Received:
    1
    thanks
     
  4. tapions

    tapions Active Member

    Joined:
    Aug 30, 2016
    Messages:
    758
    Likes Received:
    50
    gracias
     
  5. joao paulo garcia_pt

    joao paulo garcia_pt Member

    Joined:
    Mar 31, 2016
    Messages:
    37
    Likes Received:
    2
    amazing! thank u for this!
     
  6. CristianMatias

    CristianMatias Member

    Joined:
    Sep 17, 2016
    Messages:
    541
    Likes Received:
    17
  7. WMXAlv

    WMXAlv New Member

    Joined:
    Sep 24, 2016
    Messages:
    9
    Likes Received:
    1
    ty[​IMG]
    Code:
    General
    ID                                       : 1070 (0x42E)
    Complete name                            : Paramore - Misery Business (MTV PULSE HD-1080i-DD2.0-Olgold).ts
    Format                                   : MPEG-TS
    File size                                : 186 MiB
    Duration                                 : 3mn 17s
    Overall bit rate mode                    : Variable
    Overall bit rate                         : 7 794 Kbps
    
    Video
    ID                                       : 210 (0xD2)
    Menu ID                                  : 8002 (0x1F42)
    Format                                   : AVC
    Format/Info                              : Advanced Video Codec
    Format profile                           : High@L4
    Format settings, CABAC                   : Yes
    Format settings, ReFrames                : 4 frames
    Codec ID                                 : 27
    Duration                                 : 3mn 17s
    Bit rate                                 : 7 215 Kbps
    Width                                    : 1 920 pixels
    Height                                   : 1 080 pixels
    Display aspect ratio                     : 16:9
    Frame rate                               : 25.000 fps
    Standard                                 : Component
    Color space                              : YUV
    Chroma subsampling                       : 4:2:0
    Bit depth                                : 8 bits
    Scan type                                : MBAFF
    Scan order                               : Top Field First
    Bits/(Pixel*Frame)                       : 0.139
    Stream size                              : 170 MiB (91%)
    Encryption                               : Seca Mediaguard 1/2
    Color range                              : Limited
    Color primaries                          : BT.709
    Transfer characteristics                 : BT.709
    Matrix coefficients                      : BT.709
    
    Audio
    ID                                       : 221 (0xDD)
    Menu ID                                  : 8002 (0x1F42)
    Format                                   : AC-3
    Format/Info                              : Audio Coding 3
    Mode extension                           : CM (complete main)
    Format settings, Endianness              : Big
    Codec ID                                 : 6
    Duration                                 : 3mn 17s
    Bit rate mode                            : Constant
    Bit rate                                 : 192 Kbps
    Channel(s)                               : 2 channels
    Channel positions                        : Front: L R
    Sampling rate                            : 48.0 KHz
    Bit depth                                : 16 bits
    Compression mode                         : Lossy
    Delay relative to video                  : -609ms
    Stream size                              : 4.53 MiB (2%)
    Language                                 : French
    Encryption                               : Seca Mediaguard 1/2
    
    Menu
    ID                                       : 200 (0xC8)
    Menu ID                                  : 8002 (0x1F42)
    Duration                                 : 3mn 17s
    List                                     : 210 (0xD2) (AVC) / 221 (0xDD) (AC-3, French)
    Language                                 :  / French
    Server: cloud.mail.ru
    ***Hidden content cannot be quoted.***
    [/QUOTE]
     
    AdrianoValdez likes this.
  8. supakiret

    supakiret Member

    Joined:
    Sep 9, 2016
    Messages:
    50
    Likes Received:
    1
    Thanks!
     
  9. seliparkoyak123

    seliparkoyak123 Member

    Joined:
    Oct 8, 2016
    Messages:
    42
    Likes Received:
    0
  10. Crusha

    Crusha Well-Known Member Capper

    Joined:
    Oct 15, 2014
    Messages:
    2,350
    Likes Received:
    2,133
    thank u
     
  11. 777josem

    777josem Well-Known Member Uploader

    Joined:
    Sep 1, 2014
    Messages:
    2,423
    Likes Received:
    1,291
    Thank you so much!
     
  12. esemii

    esemii New Member

    Joined:
    Nov 1, 2016
    Messages:
    10
    Likes Received:
    0
    thanks!
     
  13. repj13

    repj13 Member

    Joined:
    Jul 9, 2016
    Messages:
    108
    Likes Received:
    7
    Gracias
     
  14. marekd

    marekd New Member

    Joined:
    Nov 3, 2016
    Messages:
    9
    Likes Received:
    0
    Thankk
     
  15. revilo18

    revilo18 Well-Known Member

    Joined:
    May 26, 2016
    Messages:
    1,310
    Likes Received:
    56
    THANKKK
     
  16. fernandw

    fernandw Member

    Joined:
    Dec 12, 2016
    Messages:
    51
    Likes Received:
    1
    obrigado
     
  17. misscoak

    misscoak Member

    Joined:
    Dec 22, 2016
    Messages:
    481
    Likes Received:
    3
    Thanks
     
  18. anorak73

    anorak73 Member

    Joined:
    Aug 18, 2016
    Messages:
    35
    Likes Received:
    0
    thanks