Paramore - Emergency (MV) - HD 1080i

Discussion in 'MUSIC CHOICE' started by adam dark, Dec 18, 2013.

  1. adam dark

    adam dark Well-Known Member

    Joined:
    Dec 5, 2013
    Messages:
    2,361
    Likes Received:
    3,593
    Paramore - Emergency (MV) - HD 1080i

    [​IMG]

    [​IMG]

    [​IMG]

    [​IMG]

    Code:
    General
    ID                             : 1 (0x1)
    Complete name             :     Paramore - Emergency (MV) - HD 1080i.ts
    Format                         : MPEG-TS
    File size                      : 403 MiB
    Duration                       : 4mn 1s
    Overall bit rate mode          : Variable
    Overall bit rate               : 14.0 Mbps
    
    Video
    ID                             : 481 (0x1E1)
    Menu ID                        : 1 (0x1)
    Format                         : MPEG Video
    Format version                 : Version 2
    Format profile                 : [email protected]
    Format settings, BVOP          : Yes
    Format settings, Matrix        : Default
    Format settings, GOP           : M=3, N=15
    Codec ID                       : 2
    Duration                       : 4mn 1s
    Bit rate                       : 13.1 Mbps
    Maximum bit rate               : 13.4 Mbps
    Width                          : 1 920 pixels
    Height                         : 1 080 pixels
    Display aspect ratio           : 16:9
    Frame rate                     : 29.970 fps
    Color space                    : YUV
    Chroma subsampling             : 4:2:0
    Bit depth                      : 8 bits
    Scan type                      : Interlaced
    Scan order                     : Top Field First
    Compression mode               : Lossy
    Bits/(Pixel*Frame)             : 0.211
    Time code of first frame       : 00:00:02:15
    Time code source               : Group of pictures header
    Stream size                    : 377 MiB (93%)
    
    Audio
    ID                             : 482 (0x1E2)
    Menu ID                        : 1 (0x1)
    Format                         : AC-3
    Format/Info                    : Audio Coding 3
    Mode extension                 : CM (complete main)
    Format settings, Endianness    : Big
    Codec ID                       : 129
    Duration                       : 4mn 1s
    Bit rate mode                  : Constant
    Bit rate                       : 192 Kbps
    Channel count                  : 2 channels
    Channel positions              : Front: L R
    Sampling rate                  : 48.0 KHz
    Bit depth                      : 16 bits
    Compression mode               : Lossy
    Delay relative to video        : -350ms
    Stream size                    : 5.53 MiB (1%)
    Language                       : English



    Hidden Content:
    You must either reply or click 'Like' to see the hidden information contained here.

    Credit to the original Capper
     
    Last edited: Oct 5, 2016
    misscoak, shunic, rdpillz and 8 others like this.
  2. alex

    alex Well-Known Member

    Joined:
    Nov 21, 2013
    Messages:
    4,506
    Likes Received:
    332
    thanks
     
  3. HDcollector

    HDcollector Member

    Joined:
    Dec 15, 2013
    Messages:
    390
    Likes Received:
    7
  4. wut5700

    wut5700 Member

    Joined:
    Dec 17, 2013
    Messages:
    43
    Likes Received:
    0
    thank you
     
  5. Escalade1080p

    Escalade1080p Member

    Joined:
    Nov 20, 2013
    Messages:
    465
    Likes Received:
    10
  6. santa321

    santa321 Active Member

    Joined:
    Dec 7, 2013
    Messages:
    1,153
    Likes Received:
    21
    thank you
     
  7. KallumLavigne

    KallumLavigne Well-Known Member

    Joined:
    Nov 18, 2013
    Messages:
    675
    Likes Received:
    1,142
    thanks
     
  8. ryualviss

    ryualviss Active Member

    Joined:
    Jan 6, 2014
    Messages:
    151
    Likes Received:
    451
    thanks. much appreciated
     
  9. rhea

    rhea Well-Known Member

    Joined:
    Jan 6, 2014
    Messages:
    5,193
    Likes Received:
    250
    thank you :)
     
  10. MisaxDN

    MisaxDN New Member

    Joined:
    Mar 17, 2014
    Messages:
    2
    Likes Received:
    0
    Thank You
     
  11. qwerty

    qwerty New Member

    Joined:
    Dec 29, 2013
    Messages:
    10
    Likes Received:
    0
  12. grepitu

    grepitu Member

    Joined:
    Feb 1, 2014
    Messages:
    44
    Likes Received:
    6
     
  13. Ramon.Zod

    Ramon.Zod Member

    Joined:
    Mar 31, 2014
    Messages:
    73
    Likes Received:
    9
    Muito Obrigado Manolo...
     
  14. Parce_18

    Parce_18 New Member

    Joined:
    Apr 1, 2014
    Messages:
    11
    Likes Received:
    0
    gracias
     
  15. bamaguy11

    bamaguy11 Member

    Joined:
    May 8, 2014
    Messages:
    192
    Likes Received:
    1
  16. adam dark

    adam dark Well-Known Member

    Joined:
    Dec 5, 2013
    Messages:
    2,361
    Likes Received:
    3,593
    you're welcome guys...enjoy it!
     
  17. PauloBruno

    PauloBruno Member

    Joined:
    Jun 12, 2014
    Messages:
    54
    Likes Received:
    0
    Thank U! Brazil Lovers Paramore
     
  18. adam dark

    adam dark Well-Known Member

    Joined:
    Dec 5, 2013
    Messages:
    2,361
    Likes Received:
    3,593
    you're welcome, enjoy the video! :)
     
  19. BeatleBoy

    BeatleBoy Member

    Joined:
    Jul 4, 2014
    Messages:
    189
    Likes Received:
    4
  20. WTF

    WTF Member

    Joined:
    Jan 2, 2014
    Messages:
    45
    Likes Received:
    1
    Thanks!