Paramore - Decode (MTVIdol-1080i-DD2.0)-Olgold

Discussion in 'MTV IDOL' started by Olgold, Aug 27, 2015.

  1. Olgold

    Olgold Well-Known Member Capper

    Joined:
    Aug 19, 2015
    Messages:
    386
    Likes Received:
    1,303
    [​IMG]
    General
    Format : MPEG-TS
    File size : 249 MiB
    Duration : 3mn 59s
    Overall bit rate mode : Variable
    Overall bit rate : 8 699 Kbps

    Video
    Format : AVC
    Format/Info : Advanced Video Codec
    Format profile : [email protected]
    Format settings, CABAC : Yes
    Format settings, ReFrames : 4 frames
    Duration : 3mn 59s
    Bit rate : 8 011 Kbps
    Width : 1 920 pixels
    Height : 1 080 pixels
    Display aspect ratio : 16:9
    Frame rate : 25.000 fps
    Standard : Component
    Color space : YUV
    Chroma subsampling : 4:2:0
    Bit depth : 8 bits
    Scan type : MBAFF
    Scan order : Top Field First
    Bits/(Pixel*Frame) : 0.155
    Stream size : 229 MiB (92%)
    Color range : Limited

    Audio
    Format : AC-3
    Format/Info : Audio Coding 3
    Mode extension : CM (complete main)
    Format settings, Endianness : Big
    Duration : 4mn 0s
    Bit rate mode : Constant
    Bit rate : 256 Kbps
    Channel(s) : 2 channels
    Channel positions : Front: L R
    Sampling rate : 48.0 KHz
    Compression mode : Lossy
    Delay relative to video : 112ms
    Stream size : 7.33 MiB (3%)
    Language : French

    Hidden Content:
    You must reply before you can see the hidden data contained here.
     
  2. Loading...


  3. 777josem

    777josem Well-Known Member Uploader

    Joined:
    Sep 1, 2014
    Messages:
    2,347
    Likes Received:
    1,256
    Thank you so much!
     
  4. rhea

    rhea Well-Known Member

    Joined:
    Jan 6, 2014
    Messages:
    5,193
    Likes Received:
    250
    thank you so much! :)
     
  5. Himperios

    Himperios Member

    Joined:
    Oct 11, 2015
    Messages:
    282
    Likes Received:
    14
    good
     
  6. kid

    kid New Member

    Joined:
    Jan 24, 2016
    Messages:
    26
    Likes Received:
    0
    rtututu
     
  7. Zeeh

    Zeeh Member

    Joined:
    Mar 20, 2015
    Messages:
    327
    Likes Received:
    4
    Thanks
     
  8. panchozua13

    panchozua13 Member

    Joined:
    Jun 25, 2016
    Messages:
    178
    Likes Received:
    4
    gracias por el video
     
  9. revilo18

    revilo18 Well-Known Member

    Joined:
    May 26, 2016
    Messages:
    1,298
    Likes Received:
    51
    thankkk
     
  10. kassiu wehmuth

    kassiu wehmuth Member

    Joined:
    Jun 7, 2015
    Messages:
    157
    Likes Received:
    8
    DECODE
     
  11. seliparkoyak123

    seliparkoyak123 Member

    Joined:
    Oct 8, 2016
    Messages:
    42
    Likes Received:
    0
  12. Almas_mirza

    Almas_mirza New Member

    Joined:
    Dec 20, 2016
    Messages:
    3
    Likes Received:
    0