Paramore - Decode (MTV IDOL HD-1080i-DD2.0-Olgold)

Discussion in 'MTV IDOL' started by DETOX, Feb 24, 2015.

  1. DETOX

    DETOX Well-Known Member V . I . P. Uploader

    Joined:
    Feb 20, 2014
    Messages:
    2,604
    Likes Received:
    12,261


    Paramore - Decode (MTV IDOL HD-1080i-DD2.0-Olgold)
    [​IMG]

    General
    ID : 16 (0x10)
    Complete name : Paramore - Decode (MTV IDOL HD-1080i-DD2.0-Olgold).ts
    Format : MPEG-TS
    File size : 249 MiB
    Duration : 3mn 59s
    Overall bit rate mode : Variable
    Overall bit rate : 8 699 Kbps

    Video
    ID : 310 (0x136)
    Menu ID : 8003 (0x1F43)
    Format : AVC
    Format/Info : Advanced Video Codec
    Format profile : [email protected]
    Format settings, CABAC : Yes
    Format settings, ReFrames : 4 frames
    Codec ID : 27
    Duration : 3mn 59s
    Bit rate : 8 011 Kbps
    Width : 1 920 pixels
    Height : 1 080 pixels
    Display aspect ratio : 16:9
    Frame rate : 25.000 fps
    Standard : Component
    Color space : YUV
    Chroma subsampling : 4:2:0
    Bit depth : 8 bits
    Scan type : MBAFF
    Scan order : Top Field First
    Bits/(Pixel*Frame) : 0.155
    Stream size : 229 MiB (92%)
    Color primaries : BT.709
    Transfer characteristics : BT.709
    Matrix coefficients : BT.709
    Color range : Limited

    Audio
    ID : 321 (0x141)
    Menu ID : 8003 (0x1F43)
    Format : AC-3
    Format/Info : Audio Coding 3
    Mode extension : CM (complete main)
    Format settings, Endianness : Big
    Codec ID : 6
    Duration : 4mn 0s
    Bit rate mode : Constant
    Bit rate : 256 Kbps
    Channel(s) : 2 channels
    Channel positions : Front: L R
    Sampling rate : 48.0 KHz
    Bit depth : 16 bits
    Compression mode : Lossy
    Delay relative to video : 112ms
    Stream size : 7.33 MiB (3%)
    Language : French
    Language, more info : Clean effects

    Credits to Olgold

    SERVER: MEGA / PASSWORD: DETOX

    Hidden Content:
    You must reply before you can see the hidden data contained here.
     
    Last edited: Mar 3, 2015
    DennisAvA, rhea, 777josem and 2 others like this.
  2. Loading...


  3. By.YLDz

    By.YLDz Hayley Williams Fan :) Capper

    Joined:
    Oct 7, 2013
    Messages:
    358
    Likes Received:
    3,440
    Thank You So Much ..
     
  4. 777josem

    777josem Well-Known Member Uploader

    Joined:
    Sep 1, 2014
    Messages:
    2,346
    Likes Received:
    1,253
    :happy: Thank you so much!
     
  5. rhea

    rhea Well-Known Member

    Joined:
    Jan 6, 2014
    Messages:
    5,193
    Likes Received:
    250
    thank you so much! :)
     
  6. Joseph

    Joseph Active Member

    Joined:
    Dec 10, 2013
    Messages:
    726
    Likes Received:
    144
    thank you!
     
  7. adam dark

    adam dark Well-Known Member

    Joined:
    Dec 5, 2013
    Messages:
    2,369
    Likes Received:
    3,612
    thank you so much!
     
  8. lucash

    lucash Member

    Joined:
    Nov 25, 2013
    Messages:
    190
    Likes Received:
    11
    thank you
     
  9. faz

    faz Member

    Joined:
    Jan 9, 2014
    Messages:
    196
    Likes Received:
    1
    thank you
     
  10. DennisAvA

    DennisAvA Member

    Joined:
    Nov 15, 2014
    Messages:
    31
    Likes Received:
    1
    Thank You!
     
  11. PauloBruno

    PauloBruno Member

    Joined:
    Jun 12, 2014
    Messages:
    54
    Likes Received:
    0
     
  12. nickindallas

    nickindallas Member

    Joined:
    Feb 15, 2015
    Messages:
    75
    Likes Received:
    0
    thank you
     
  13. Zatimi

    Zatimi Active Member

    Joined:
    Aug 27, 2014
    Messages:
    589
    Likes Received:
    57
    thanks a lot :)
     
  14. p4ramore

    p4ramore Member

    Joined:
    Feb 1, 2014
    Messages:
    45
    Likes Received:
    0
    thanks you
     
  15. slill

    slill Member

    Joined:
    Jul 25, 2014
    Messages:
    890
    Likes Received:
    7
    thanks
     
  16. joelh20101

    joelh20101 Well-Known Member

    Joined:
    Nov 4, 2013
    Messages:
    1,455
    Likes Received:
    132
    thanks for this
     
  17. Crusha

    Crusha Well-Known Member Capper

    Joined:
    Oct 15, 2014
    Messages:
    2,349
    Likes Received:
    2,074
    thank you :)
     
  18. Danielcha

    Danielcha Member

    Joined:
    Sep 20, 2014
    Messages:
    74
    Likes Received:
    0
    thanks so much ^^
     
  19. ericbook

    ericbook Member

    Joined:
    Jan 3, 2014
    Messages:
    150
    Likes Received:
    1
    graciaas por el video :)
     
  20. jorge7m

    jorge7m Member

    Joined:
    Sep 27, 2014
    Messages:
    28
    Likes Received:
    0
    thnk u
     
  21. javier vega

    javier vega Member

    Joined:
    Nov 16, 2013
    Messages:
    220
    Likes Received:
    4
    Que tiempos......