Paramore - Decode Movie Version (1080p Upscale)

Discussion in 'UPSCALED' started by adam dark, Dec 4, 2016.

  1. adam dark

    adam dark Video Music Lover <3 V . I . P.

    Joined:
    Dec 5, 2013
    Messages:
    2,875
    Likes Received:
    8,141
    Paramore - Decode Movie Version (1080p Upscale)

    [​IMG]
    [​IMG]
    [​IMG]
    [​IMG]
    [​IMG]
    [​IMG]
    [​IMG]

    Code:
    General
    Complete name                  : Paramore - Decode Movie Version (1080p Upscale).mov
    Format                         : MPEG-4
    Format profile                 : Base Media
    Codec ID                       : isom (isom/avc1/iso6)
    File size                      : 257 MiB
    Duration                       : 4 min 3 s
    Overall bit rate mode          : Variable
    Overall bit rate               : 8 875 kb/s
    Encoded date                   : UTC 2016-12-04 02:20:03
    Tagged date                    : UTC 2016-12-04 02:20:03
    
    Video
    ID                             : 1
    Format                         : AVC
    Format/Info                    : Advanced Video Codec
    Format profile                 : High@L3
    Format settings, CABAC         : Yes
    Format settings, ReFrames      : 4 frames
    Codec ID                       : avc1
    Codec ID/Info                  : Advanced Video Coding
    Duration                       : 4 min 3 s
    Bit rate                       : 8 708 kb/s
    Maximum bit rate               : 29.5 Mb/s
    Width                          : 1 920 pixels
    Height                         : 1 024 pixels
    Display aspect ratio           : 1.85:1
    Frame rate mode                : Constant
    Frame rate                     : 25.000 FPS
    Color space                    : YUV
    Chroma subsampling             : 4:2:0
    Bit depth                      : 8 bits
    Scan type                      : Progressive
    Bits/(Pixel*Frame)             : 0.177
    Stream size                    : 252 MiB (98%)
    Title                          : 264@GPAC0.5.2-DEV-rev248-g39d5978-master
    Writing library                : x264 core 146 r2538 121396c
    Encoding settings              : cabac=1 / ref=2 / deblock=1:0:0 / analyse=0x3:0x131 / me=umh / subme=6 / psy=1 / psy_rd=1.00:0.00 / mixed_ref=1 / me_range=16 / chroma_me=1 / trellis=1 / 8x8dct=1 / cqm=0 / deadzone=21,11 / fast_pskip=1 / chroma_qp_offset=-2 / threads=12 / lookahead_threads=2 / sliced_threads=0 / nr=0 / decimate=1 / interlaced=0 / bluray_compat=0 / constrained_intra=0 / bframes=3 / b_pyramid=2 / b_adapt=1 / b_bias=0 / direct=1 / weightb=1 / open_gop=0 / weightp=2 / keyint=250 / keyint_min=25 / scenecut=40 / intra_refresh=0 / rc_lookahead=40 / rc=crf / mbtree=1 / crf=21.0 / qcomp=0.60 / qpmin=0 / qpmax=69 / qpstep=4 / ip_ratio=1.40 / aq=1:1.00
    Encoded date                   : UTC 2016-12-04 02:20:03
    Tagged date                    : UTC 2016-12-04 02:20:05
    
    Audio
    ID                             : 2
    Format                         : AAC
    Format/Info                    : Advanced Audio Codec
    Format profile                 : LC
    Codec ID                       : 40
    Duration                       : 4 min 3 s
    Bit rate mode                  : Variable
    Bit rate                       : 166 kb/s
    Maximum bit rate               : 177 kb/s
    Channel(s)                     : 2 channels
    Channel positions              : Front: L R
    Sampling rate                  : 48.0 kHz
    Frame rate                     : 46.875 FPS (1024 spf)
    Compression mode               : Lossy
    Stream size                    : 4.80 MiB (2%)
    Encoded date                   : UTC 2016-12-04 01:44:14
    Tagged date                    : UTC 2016-12-04 02:20:05

    Hidden Content:
    You must reply before you can see the hidden data contained here.
     
  2. Loading...


  3. Jorge Barrionuevo

    Jorge Barrionuevo Well-Known Member

    Joined:
    Jun 9, 2015
    Messages:
    2,235
    Likes Received:
    1,832
    Muchas Gracias Adam!
     
    adam dark likes this.
  4. supakirtza

    supakirtza Member

    Joined:
    Oct 17, 2016
    Messages:
    174
    Likes Received:
    13
  5. Djodjara

    Djodjara Gwen Fan Capper V . I . P.

    Joined:
    Sep 6, 2014
    Messages:
    1,445
    Likes Received:
    3,363
    Thanks Adam :D
     
    adam dark likes this.
  6. Tadeulife

    Tadeulife Well-Known Member

    Joined:
    Jan 21, 2016
    Messages:
    1,649
    Likes Received:
    66
    Thanks
     
  7. quake2

    quake2 Well-Known Member

    Joined:
    Oct 11, 2014
    Messages:
    2,018
    Likes Received:
    153
    thanks
     
  8. multimediafm

    multimediafm Well-Known Member Archiver Donor

    Joined:
    Mar 27, 2014
    Messages:
    19,173
    Likes Received:
    1,915
    Thanks...
     
  9. slill

    slill Active Member

    Joined:
    Jul 25, 2014
    Messages:
    1,188
    Likes Received:
    21
    thanks
     
  10. willjay

    willjay Active Member

    Joined:
    May 13, 2016
    Messages:
    278
    Likes Received:
    60
    Nice man
     
  11. Escalade1080p

    Escalade1080p Member

    Joined:
    Nov 20, 2013
    Messages:
    624
    Likes Received:
    24
    Thank you!
     
  12. ok88

    ok88 New Member

    Joined:
    Dec 22, 2016
    Messages:
    23
    Likes Received:
    0
    Thank you!
     
  13. cesar josep liuses yesus

    cesar josep liuses yesus Member

    Joined:
    Dec 22, 2016
    Messages:
    121
    Likes Received:
    2
  14. immortalzack

    immortalzack Active Member

    Joined:
    Jan 10, 2017
    Messages:
    604
    Likes Received:
    36
    tankkk
     
  15. someone42

    someone42 Member

    Joined:
    Jan 15, 2017
    Messages:
    55
    Likes Received:
    0
  16. kakaaws

    kakaaws Active Member

    Joined:
    Jan 7, 2017
    Messages:
    552
    Likes Received:
    41
    Thank You!
     
  17. hugehoanghiep1

    hugehoanghiep1 New Member

    Joined:
    Feb 19, 2017
    Messages:
    16
    Likes Received:
    0
    hjsjsjskdkkfkf
     
  18. Pavulon

    Pavulon Well-Known Member Donor

    Joined:
    Mar 22, 2016
    Messages:
    5,031
    Likes Received:
    1,646
    thanks
     
  19. antony gustavo firmino

    antony gustavo firmino Member

    Joined:
    Mar 18, 2017
    Messages:
    281
    Likes Received:
    10
  20. bugmenot123

    bugmenot123 Active Member

    Joined:
    Jan 19, 2017
    Messages:
    762
    Likes Received:
    35
    thanks for this
     
  21. Dyoggo

    Dyoggo Well-Known Member

    Joined:
    May 14, 2014
    Messages:
    1,078
    Likes Received:
    45
    THANKS