Paramore Brick By Boring Brick (720p Master AAC AVC-Olala)

Discussion in 'MASTER & MASTER RIP' started by KallumLavigne, Jan 3, 2014.

  1. Wanderson

    Wanderson Member

    Joined:
    Aug 14, 2016
    Messages:
    54
    Likes Received:
    2
    Thanks.[​IMG]

    Code:
    General
    Complete name                  : Paramore - Brick By Boring Brick (720p Master AAC AVC-Olala).mov
    File size                      : 204 MiB
    Duration                       : 4mn 26s
    Overall bit rate               : 6 432 Kbps
    
    Video
    ID                             : 1
    Format                         : AVC
    Format/Info                    : Advanced Video Codec
    Format profile                 : [email protected]
    Format settings, CABAC         : No
    Format settings, ReFrames      : 2 frames
    Codec ID                       : avc1
    Codec ID/Info                  : Advanced Video Coding
    Duration                       : 4mn 26s
    Source duration                : 4mn 29s
    Bit rate                       : 6 295 Kbps
    Maximum bit rate               : 12.7 Mbps
    Width                          : 1 280 pixels
    Height                         : 720 pixels
    Display aspect ratio           : 16:9
    Frame rate                     : 23.976 fps
    Color space                    : YUV
    Chroma subsampling             : 4:2:0
    Bit depth                      : 8 bits
    Scan type                      : Progressive
    Bits/(Pixel*Frame)             : 0.285
    Stream size                    : 200 MiB (98%)
    
    Audio
    ID                             : 2
    Format                         : AAC
    Format/Info                    : Advanced Audio Codec
    Codec ID                       : 40
    Duration                       : 4mn 26s
    Bit rate                       : 128 Kbps
    Channel count                  : 2 channels
    Channel positions              : Front: L R
    Sampling rate                  : 44.1 KHz
    Compression mode               : Lossy
    Stream size                    : 4.14 MiB (2%)
    Language                       : English
    
    
    ***Hidden content cannot be quoted.***

    Capper: Olala[/QUOTE]
     
    Micondor bueno likes this.
  2. JonVanBra

    JonVanBra Member

    Joined:
    Aug 17, 2016
    Messages:
    59
    Likes Received:
    4
  3. xavier777

    xavier777 Active Member

    Joined:
    Aug 29, 2016
    Messages:
    366
    Likes Received:
    26
    Thank
     
  4. andreszzz123

    andreszzz123 Member

    Joined:
    Oct 19, 2016
    Messages:
    49
    Likes Received:
    4
  5. marekd

    marekd New Member

    Joined:
    Nov 3, 2016
    Messages:
    9
    Likes Received:
    0
    Thank you
     
  6. Bookerstp

    Bookerstp Member

    Joined:
    Feb 25, 2016
    Messages:
    108
    Likes Received:
    0
  7. xnike2livx

    xnike2livx Member

    Joined:
    Nov 1, 2016
    Messages:
    85
    Likes Received:
    0
  8. carvalhothi

    carvalhothi Member

    Joined:
    Nov 3, 2016
    Messages:
    203
    Likes Received:
    7
  9. xavier777

    xavier777 Active Member

    Joined:
    Aug 29, 2016
    Messages:
    366
    Likes Received:
    26
    [/QUOTE]
    Thanks
     
  10. xavier777

    xavier777 Active Member

    Joined:
    Aug 29, 2016
    Messages:
    366
    Likes Received:
    26
    Thanks
     
  11. Micondor bueno

    Micondor bueno New Member

    Joined:
    Dec 8, 2016
    Messages:
    15
    Likes Received:
    0
  12. diego1999

    diego1999 New Member

    Joined:
    Jan 14, 2017
    Messages:
    6
    Likes Received:
    0
    please i need, thanks
     
  13. MaoHerrera

    MaoHerrera New Member

    Joined:
    Jan 8, 2017
    Messages:
    9
    Likes Received:
    0
    :D Great!!!
     
  14. misscoak

    misscoak Member

    Joined:
    Dec 22, 2016
    Messages:
    494
    Likes Received:
    3
    thanks