Paramore Brick By Boring Brick (720p Master AAC AVC-Olala)

Discussion in 'MASTER & MASTER RIP' started by KallumLavigne, Jan 3, 2014.

  1. kalo

    kalo Member

    Joined:
    May 25, 2015
    Messages:
    313
    Likes Received:
    8
    thank you
     
  2. Himperios

    Himperios Member

    Joined:
    Oct 11, 2015
    Messages:
    282
    Likes Received:
    14
    good
     
  3. winebaldo

    winebaldo Member

    Joined:
    Oct 19, 2015
    Messages:
    225
    Likes Received:
    11
    thank youuuu
     
  4. KallumLavigne

    KallumLavigne Well-Known Member

    Joined:
    Nov 18, 2013
    Messages:
    675
    Likes Received:
    1,174
    New Link Added
     
  5. Pedro Correia

    Pedro Correia Active Member

    Joined:
    Apr 17, 2014
    Messages:
    615
    Likes Received:
    61
    [​IMG]

    Code:
    General
    Complete name                  : Paramore - Brick By Boring Brick (720p Master AAC AVC-Olala).mov
    File size                      : 204 MiB
    Duration                       : 4mn 26s
    Overall bit rate               : 6 432 Kbps
    
    Video
    ID                             : 1
    Format                         : AVC
    Format/Info                    : Advanced Video Codec
    Format profile                 : [email protected]
    Format settings, CABAC         : No
    Format settings, ReFrames      : 2 frames
    Codec ID                       : avc1
    Codec ID/Info                  : Advanced Video Coding
    Duration                       : 4mn 26s
    Source duration                : 4mn 29s
    Bit rate                       : 6 295 Kbps
    Maximum bit rate               : 12.7 Mbps
    Width                          : 1 280 pixels
    Height                         : 720 pixels
    Display aspect ratio           : 16:9
    Frame rate                     : 23.976 fps
    Color space                    : YUV
    Chroma subsampling             : 4:2:0
    Bit depth                      : 8 bits
    Scan type                      : Progressive
    Bits/(Pixel*Frame)             : 0.285
    Stream size                    : 200 MiB (98%)
    
    Audio
    ID                             : 2
    Format                         : AAC
    Format/Info                    : Advanced Audio Codec
    Codec ID                       : 40
    Duration                       : 4mn 26s
    Bit rate                       : 128 Kbps
    Channel count                  : 2 channels
    Channel positions              : Front: L R
    Sampling rate                  : 44.1 KHz
    Compression mode               : Lossy
    Stream size                    : 4.14 MiB (2%)
    Language                       : English
    
    
    ***Hidden content cannot be quoted.***

    Capper: Olala[/QUOTE]
     
    calladinho likes this.
  6. Ardy

    Ardy Active Member

    Joined:
    Dec 2, 2013
    Messages:
    129
    Likes Received:
    215
    Thanks!
     
  7. massanggi

    massanggi New Member

    Joined:
    Jan 25, 2016
    Messages:
    3
    Likes Received:
    0
    thank you
     
  8. leonardo

    leonardo Member

    Joined:
    May 9, 2014
    Messages:
    487
    Likes Received:
    5
    thank you
     
  9. game

    game Member

    Joined:
    Jan 25, 2016
    Messages:
    199
    Likes Received:
    6
    thank you
     
  10. lpzion

    lpzion Active Member

    Joined:
    May 10, 2014
    Messages:
    140
    Likes Received:
    37
    re-upload thank you
     
  11. leonardo

    leonardo Member

    Joined:
    May 9, 2014
    Messages:
    487
    Likes Received:
    5
    thank you
     
  12. issamtohme

    issamtohme Active Member

    Joined:
    Oct 14, 2015
    Messages:
    377
    Likes Received:
    121
    thnks
     
  13. shing000

    shing000 Member

    Joined:
    Mar 13, 2016
    Messages:
    580
    Likes Received:
    13
    gracias
     
  14. sideshow_bob

    sideshow_bob Well-Known Member

    Joined:
    Dec 20, 2013
    Messages:
    2,467
    Likes Received:
    129
  15. Vector09

    Vector09 Well-Known Member

    Joined:
    Feb 16, 2016
    Messages:
    194
    Likes Received:
    341
    thanks
     
  16. seesagun

    seesagun Member

    Joined:
    Mar 22, 2014
    Messages:
    227
    Likes Received:
    1
    Thanks
     
  17. carlos024333

    carlos024333 Member

    Joined:
    Mar 28, 2016
    Messages:
    185
    Likes Received:
    1
  18. slill

    slill Member

    Joined:
    Jul 25, 2014
    Messages:
    929
    Likes Received:
    10
    thanks
     
  19. Antony

    Antony Active Member

    Joined:
    Nov 11, 2013
    Messages:
    740
    Likes Received:
    178
    Thanks
     
  20. kassiu wehmuth

    kassiu wehmuth Member

    Joined:
    Jun 7, 2015
    Messages:
    156
    Likes Received:
    8
    thankk