Paramore Brick By Boring Brick (720p Master AAC AVC-Olala)

Discussion in 'MASTER & MASTER RIP' started by KallumLavigne, Jan 3, 2014.

  1. kalo

    kalo Member

    Joined:
    May 25, 2015
    Messages:
    395
    Likes Received:
    15
    thank you
     
  2. Himperios

    Himperios Member

    Joined:
    Oct 11, 2015
    Messages:
    286
    Likes Received:
    18
    good
     
  3. winebaldo

    winebaldo Member

    Joined:
    Oct 19, 2015
    Messages:
    250
    Likes Received:
    12
    thank youuuu
     
  4. KallumLavigne

    KallumLavigne Well-Known Member

    Joined:
    Nov 18, 2013
    Messages:
    678
    Likes Received:
    1,306
    New Link Added
     
  5. Pedro Correia

    Pedro Correia Well-Known Member

    Joined:
    Apr 17, 2014
    Messages:
    1,028
    Likes Received:
    109
    [​IMG]

    Code:
    General
    Complete name                  : Paramore - Brick By Boring Brick (720p Master AAC AVC-Olala).mov
    File size                      : 204 MiB
    Duration                       : 4mn 26s
    Overall bit rate               : 6 432 Kbps
    
    Video
    ID                             : 1
    Format                         : AVC
    Format/Info                    : Advanced Video Codec
    Format profile                 : [email protected]
    Format settings, CABAC         : No
    Format settings, ReFrames      : 2 frames
    Codec ID                       : avc1
    Codec ID/Info                  : Advanced Video Coding
    Duration                       : 4mn 26s
    Source duration                : 4mn 29s
    Bit rate                       : 6 295 Kbps
    Maximum bit rate               : 12.7 Mbps
    Width                          : 1 280 pixels
    Height                         : 720 pixels
    Display aspect ratio           : 16:9
    Frame rate                     : 23.976 fps
    Color space                    : YUV
    Chroma subsampling             : 4:2:0
    Bit depth                      : 8 bits
    Scan type                      : Progressive
    Bits/(Pixel*Frame)             : 0.285
    Stream size                    : 200 MiB (98%)
    
    Audio
    ID                             : 2
    Format                         : AAC
    Format/Info                    : Advanced Audio Codec
    Codec ID                       : 40
    Duration                       : 4mn 26s
    Bit rate                       : 128 Kbps
    Channel count                  : 2 channels
    Channel positions              : Front: L R
    Sampling rate                  : 44.1 KHz
    Compression mode               : Lossy
    Stream size                    : 4.14 MiB (2%)
    Language                       : English
    
    
    ***Hidden content cannot be quoted.***

    Capper: Olala[/QUOTE]
     
    calladinho likes this.
  6. Ardy

    Ardy Well-Known Member

    Joined:
    Dec 2, 2013
    Messages:
    150
    Likes Received:
    279
    Thanks!
     
  7. massanggi

    massanggi New Member

    Joined:
    Jan 25, 2016
    Messages:
    3
    Likes Received:
    0
    thank you
     
  8. leonardo

    leonardo Member

    Joined:
    May 9, 2014
    Messages:
    594
    Likes Received:
    6
    thank you
     
  9. game

    game Member

    Joined:
    Jan 25, 2016
    Messages:
    197
    Likes Received:
    6
    thank you
     
  10. lpzion

    lpzion Active Member

    Joined:
    May 10, 2014
    Messages:
    250
    Likes Received:
    71
    re-upload thank you
     
  11. leonardo

    leonardo Member

    Joined:
    May 9, 2014
    Messages:
    594
    Likes Received:
    6
    thank you
     
  12. issamtohme

    issamtohme Active Member

    Joined:
    Oct 14, 2015
    Messages:
    450
    Likes Received:
    182
    thnks
     
  13. shing000

    shing000 Active Member

    Joined:
    Mar 13, 2016
    Messages:
    950
    Likes Received:
    37
    gracias
     
  14. sideshow_bob

    sideshow_bob Well-Known Member

    Joined:
    Dec 20, 2013
    Messages:
    3,027
    Likes Received:
    189
  15. Vector09

    Vector09 Well-Known Member

    Joined:
    Feb 16, 2016
    Messages:
    307
    Likes Received:
    575
    thanks
     
  16. seesagun

    seesagun Member

    Joined:
    Mar 22, 2014
    Messages:
    281
    Likes Received:
    2
    Thanks
     
  17. carlos024333

    carlos024333 Member

    Joined:
    Mar 28, 2016
    Messages:
    405
    Likes Received:
    6
  18. slill

    slill Active Member

    Joined:
    Jul 25, 2014
    Messages:
    1,083
    Likes Received:
    15
    thanks
     
  19. Antony

    Antony Active Member

    Joined:
    Nov 11, 2013
    Messages:
    956
    Likes Received:
    209
    Thanks
     
  20. kassiu wehmuth

    kassiu wehmuth Member

    Joined:
    Jun 7, 2015
    Messages:
    207
    Likes Received:
    13
    thankk