Paramore Brick By Boring Brick (720p Master AAC AVC-Olala)

Discussion in 'MASTER & MASTER RIP' started by KallumLavigne, Jan 3, 2014.

  1. KallumLavigne

    KallumLavigne Well-Known Member

    Joined:
    Nov 18, 2013
    Messages:
    677
    Likes Received:
    1,241
    [​IMG]

    Code:
    General
    Complete name                  : Paramore - Brick By Boring Brick (720p Master AAC AVC-Olala).mov
    File size                      : 204 MiB
    Duration                       : 4mn 26s
    Overall bit rate               : 6 432 Kbps
    
    Video
    ID                             : 1
    Format                         : AVC
    Format/Info                    : Advanced Video Codec
    Format profile                 : [email protected]
    Format settings, CABAC         : No
    Format settings, ReFrames      : 2 frames
    Codec ID                       : avc1
    Codec ID/Info                  : Advanced Video Coding
    Duration                       : 4mn 26s
    Source duration                : 4mn 29s
    Bit rate                       : 6 295 Kbps
    Maximum bit rate               : 12.7 Mbps
    Width                          : 1 280 pixels
    Height                         : 720 pixels
    Display aspect ratio           : 16:9
    Frame rate                     : 23.976 fps
    Color space                    : YUV
    Chroma subsampling             : 4:2:0
    Bit depth                      : 8 bits
    Scan type                      : Progressive
    Bits/(Pixel*Frame)             : 0.285
    Stream size                    : 200 MiB (98%)
    
    Audio
    ID                             : 2
    Format                         : AAC
    Format/Info                    : Advanced Audio Codec
    Codec ID                       : 40
    Duration                       : 4mn 26s
    Bit rate                       : 128 Kbps
    Channel count                  : 2 channels
    Channel positions              : Front: L R
    Sampling rate                  : 44.1 KHz
    Compression mode               : Lossy
    Stream size                    : 4.14 MiB (2%)
    Language                       : English
    
    
    Hidden Content:
    You must reply before you can see the hidden data contained here.
    Capper: Olala
     
    Last edited: Dec 18, 2015
    Wanderson, calladinho, d12asd and 2 others like this.
  2. Loading...


  3. alex

    alex Well-Known Member

    Joined:
    Nov 21, 2013
    Messages:
    4,532
    Likes Received:
    354
    thanks:)
     
  4. pablo palormo

    pablo palormo Member

    Joined:
    Oct 27, 2013
    Messages:
    177
    Likes Received:
    2
  5. macskalacs

    macskalacs New Member

    Joined:
    Nov 29, 2013
    Messages:
    8
    Likes Received:
    0
    Thanks for this one too!
     
  6. ryualviss

    ryualviss Active Member

    Joined:
    Jan 6, 2014
    Messages:
    151
    Likes Received:
    516
    wow, thanks for nice song ^^
     
  7. Christian Robyn Silva

    Christian Robyn Silva New Member

    Joined:
    Feb 2, 2014
    Messages:
    3
    Likes Received:
    2
    Obrigado :)
     
  8. d12asd

    d12asd New Member

    Joined:
    Jan 20, 2014
    Messages:
    4
    Likes Received:
    0
  9. BalaK

    BalaK New Member

    Joined:
    Mar 22, 2014
    Messages:
    18
    Likes Received:
    0
  10. Parce_18

    Parce_18 New Member

    Joined:
    Apr 1, 2014
    Messages:
    11
    Likes Received:
    0
    gracias...
     
  11. mayday4352767

    mayday4352767 Member

    Joined:
    Apr 15, 2014
    Messages:
    30
    Likes Received:
    1
  12. Flaxdevil

    Flaxdevil Member

    Joined:
    May 25, 2014
    Messages:
    210
    Likes Received:
    7
    great video
     
  13. bamaguy11

    bamaguy11 Member

    Joined:
    May 8, 2014
    Messages:
    194
    Likes Received:
    1
  14. zidris

    zidris Member

    Joined:
    Aug 17, 2014
    Messages:
    129
    Likes Received:
    2
    thanks
     
  15. Vagabond

    Vagabond Member

    Joined:
    Jun 23, 2014
    Messages:
    160
    Likes Received:
    0
    Thank You!!
     
  16. Diamond

    Diamond Member

    Joined:
    Apr 9, 2014
    Messages:
    205
    Likes Received:
    3
    th
    thanks
     
  17. ronald

    ronald Member

    Joined:
    Dec 27, 2013
    Messages:
    57
    Likes Received:
    0
    muchas gracias from peru!!
     
  18. Crusha

    Crusha Well-Known Member Capper

    Joined:
    Oct 15, 2014
    Messages:
    2,350
    Likes Received:
    2,292
    thanks
     
  19. indreams2011

    indreams2011 Member

    Joined:
    Dec 10, 2014
    Messages:
    663
    Likes Received:
    19
     
    Micondor bueno and calladinho like this.
  20. joelh20101

    joelh20101 Well-Known Member

    Joined:
    Nov 4, 2013
    Messages:
    1,459
    Likes Received:
    143
    thanks for this
     
  21. litafan316

    litafan316 New Member

    Joined:
    Nov 8, 2014
    Messages:
    3
    Likes Received:
    0
    Thanks so much