P!nk - Whatever You Want [iTunes-AAC-1080p]-HDMania

Discussion in 'OTHERS' started by rgf72k, Mar 1, 2018.

  1. rgf72k

    rgf72k Founder Staff Member AdMiN Uploader

    Joined:
    Oct 1, 2013
    Messages:
    1,242
    Likes Received:
    18,873
    P!nk - Whatever You Want [iTunes-AAC-1080p]-HDMania
    [​IMG] [​IMG] [​IMG] [​IMG]

    General
    Unique ID : 198392153295657759866196957762216724752 (0x9540F05A33705A9FA54A5027A2570910)
    Complete name : P!nk - Whatever You Want [iTunes-AAC-1080p]-HDMania.mkv
    Format : Matroska
    Format version : Version 4 / Version 2
    File size : 153 MiB
    Duration : 4 min 2 s
    Overall bit rate : 5 298 kb/s
    Encoded date : UTC 2018-03-01 17:11:49
    Writing application : mkvmerge v18.0.0 ('Apricity') 64-bit
    Writing library : libebml v1.3.5 + libmatroska v1.4.8

    Video
    ID : 2
    Format : AVC
    Format/Info : Advanced Video Codec
    Format profile : High@L4
    Format settings : CABAC / 4 Ref Frames
    Format settings, CABAC : Yes
    Format settings, RefFrames : 4 frames
    Codec ID : V_MPEG4/ISO/AVC
    Duration : 4 min 2 s
    Bit rate : 5 168 kb/s
    Width : 1 920 pixels
    Height : 1 080 pixels
    Display aspect ratio : 16:9
    Frame rate mode : Constant
    Frame rate : 23.976 (24000/1001) FPS
    Color space : YUV
    Chroma subsampling : 4:2:0
    Bit depth : 8 bits
    Scan type : Progressive
    Bits/(Pixel*Frame) : 0.104
    Stream size : 150 MiB (98%)
    Language : English
    Default : Yes
    Forced : No
    Color range : Limited
    Color primaries : BT.709
    Transfer characteristics : BT.709
    Matrix coefficients : BT.709

    Audio
    ID : 1
    Format : AAC
    Format/Info : Advanced Audio Codec
    Format profile : LC
    Codec ID : A_AAC-2
    Duration : 4 min 2 s
    Bit rate : 128 kb/s
    Channel(s) : 2 channels
    Channel positions : Front: L R
    Sampling rate : 48.0 kHz
    Frame rate : 46.875 FPS (1024 SPF)
    Compression mode : Lossy
    Delay relative to video : -42 ms
    Stream size : 3.71 MiB (2%)
    Language : English
    Default : Yes
    Forced : No

    Download:
    Hidden Content:
    You must either reply or click 'Like' to see the hidden information contained here.
    Ripped By Me :victory:
     
    Last edited: Mar 1, 2018
  2. Albert90

    Albert90 Active Member

    Joined:
    May 27, 2017
    Messages:
    651
    Likes Received:
    55

    Thanks
     
    Boxxick likes this.
  3. BetaKsi

    BetaKsi Well-Known Member

    Joined:
    Oct 18, 2015
    Messages:
    2,259
    Likes Received:
    591
    Thank you))
     
  4. dinhotwain

    dinhotwain Well-Known Member

    Joined:
    Jan 1, 2015
    Messages:
    1,235
    Likes Received:
    143
  5. Official Videos

    Official Videos Member

    Joined:
    Dec 1, 2015
    Messages:
    405
    Likes Received:
    18
  6. junior.ca

    junior.ca Well-Known Member

    Joined:
    Jun 1, 2014
    Messages:
    1,927
    Likes Received:
    99
    OBRIGADO
     
  7. daronmalakian

    daronmalakian Member

    Joined:
    Sep 30, 2014
    Messages:
    344
    Likes Received:
    18
    Thx so much
     
  8. eurodsantos

    eurodsantos New Member

    Joined:
    Jul 24, 2016
    Messages:
    16
    Likes Received:
    2
    thank you so much
     
  9. Tiago

    Tiago Well-Known Member

    Joined:
    Dec 7, 2013
    Messages:
    2,393
    Likes Received:
    106
    thanks
     
  10. Vjeans

    Vjeans Well-Known Member V . I . P.

    Joined:
    May 10, 2014
    Messages:
    1,321
    Likes Received:
    4,086
    Thank you!
     
  11. Daze

    Daze Member

    Joined:
    Sep 29, 2016
    Messages:
    165
    Likes Received:
    4
    Thank you
     
  12. hookedonspice

    hookedonspice Active Member

    Joined:
    Dec 7, 2015
    Messages:
    65
    Likes Received:
    153
  13. johnnosolo

    johnnosolo Member

    Joined:
    Dec 18, 2015
    Messages:
    680
    Likes Received:
    17
  14. Alexey

    Alexey Active Member

    Joined:
    Sep 29, 2014
    Messages:
    243
    Likes Received:
    79
    thanks
     
  15. Lasanha

    Lasanha New Member

    Joined:
    Jul 12, 2018
    Messages:
    18
    Likes Received:
    0
    thanks
     
  16. Bruno

    Bruno Well-Known Member

    Joined:
    Nov 3, 2013
    Messages:
    1,863
    Likes Received:
    134
    many thanks
     
  17. Boxxick

    Boxxick New Member

    Joined:
    Aug 4, 2017
    Messages:
    18
    Likes Received:
    1
    Thanks!
     
  18. Bruno77

    Bruno77 Well-Known Member

    Joined:
    Sep 12, 2016
    Messages:
    2,055
    Likes Received:
    45
    Thanks
     
  19. mvlmoraes

    mvlmoraes Well-Known Member Donor

    Joined:
    Nov 22, 2013
    Messages:
    3,215
    Likes Received:
    428
    thanks
     
  20. Marcelo Garcia Junior

    Marcelo Garcia Junior Member

    Joined:
    Jun 3, 2015
    Messages:
    838
    Likes Received:
    16