P!nk - Whatever You Want [iTunes-AAC-1080p]-HDMania

Discussion in 'OTHERS' started by rgf72k, Mar 1, 2018.

  1. rgf72k

    rgf72k Founder Staff Member AdMiN Capper Uploader

    Joined:
    Oct 1, 2013
    Messages:
    1,223
    Likes Received:
    18,294
    P!nk - Whatever You Want [iTunes-AAC-1080p]-HDMania
    [​IMG] [​IMG] [​IMG] [​IMG]

    General
    Unique ID : 198392153295657759866196957762216724752 (0x9540F05A33705A9FA54A5027A2570910)
    Complete name : P!nk - Whatever You Want [iTunes-AAC-1080p]-HDMania.mkv
    Format : Matroska
    Format version : Version 4 / Version 2
    File size : 153 MiB
    Duration : 4 min 2 s
    Overall bit rate : 5 298 kb/s
    Encoded date : UTC 2018-03-01 17:11:49
    Writing application : mkvmerge v18.0.0 ('Apricity') 64-bit
    Writing library : libebml v1.3.5 + libmatroska v1.4.8

    Video
    ID : 2
    Format : AVC
    Format/Info : Advanced Video Codec
    Format profile : High@L4
    Format settings : CABAC / 4 Ref Frames
    Format settings, CABAC : Yes
    Format settings, RefFrames : 4 frames
    Codec ID : V_MPEG4/ISO/AVC
    Duration : 4 min 2 s
    Bit rate : 5 168 kb/s
    Width : 1 920 pixels
    Height : 1 080 pixels
    Display aspect ratio : 16:9
    Frame rate mode : Constant
    Frame rate : 23.976 (24000/1001) FPS
    Color space : YUV
    Chroma subsampling : 4:2:0
    Bit depth : 8 bits
    Scan type : Progressive
    Bits/(Pixel*Frame) : 0.104
    Stream size : 150 MiB (98%)
    Language : English
    Default : Yes
    Forced : No
    Color range : Limited
    Color primaries : BT.709
    Transfer characteristics : BT.709
    Matrix coefficients : BT.709

    Audio
    ID : 1
    Format : AAC
    Format/Info : Advanced Audio Codec
    Format profile : LC
    Codec ID : A_AAC-2
    Duration : 4 min 2 s
    Bit rate : 128 kb/s
    Channel(s) : 2 channels
    Channel positions : Front: L R
    Sampling rate : 48.0 kHz
    Frame rate : 46.875 FPS (1024 SPF)
    Compression mode : Lossy
    Delay relative to video : -42 ms
    Stream size : 3.71 MiB (2%)
    Language : English
    Default : Yes
    Forced : No

    Download:
    Hidden Content:
    You must either reply or click 'Like' to see the hidden information contained here.
    Ripped By Me :victory:
     
    Last edited: Mar 1, 2018
  2. Albert90

    Albert90 Active Member

    Joined:
    May 27, 2017
    Messages:
    614
    Likes Received:
    46

    Thanks
     
  3. BetaKsi

    BetaKsi Well-Known Member

    Joined:
    Oct 18, 2015
    Messages:
    1,932
    Likes Received:
    537
    Thank you))
     
  4. dinhotwain

    dinhotwain Well-Known Member

    Joined:
    Jan 1, 2015
    Messages:
    1,149
    Likes Received:
    123
  5. Official Videos

    Official Videos Member

    Joined:
    Dec 1, 2015
    Messages:
    392
    Likes Received:
    17
  6. junior.ca

    junior.ca Well-Known Member

    Joined:
    Jun 1, 2014
    Messages:
    1,482
    Likes Received:
    78
    OBRIGADO
     
  7. daronmalakian

    daronmalakian Member

    Joined:
    Sep 30, 2014
    Messages:
    334
    Likes Received:
    17
    Thx so much
     
  8. eurodsantos

    eurodsantos New Member

    Joined:
    Jul 24, 2016
    Messages:
    15
    Likes Received:
    2
    thank you so much
     
  9. Tiago

    Tiago Well-Known Member

    Joined:
    Dec 7, 2013
    Messages:
    2,166
    Likes Received:
    80
    thanks
     
  10. Vjeans

    Vjeans Well-Known Member V . I . P.

    Joined:
    May 10, 2014
    Messages:
    1,250
    Likes Received:
    3,954
    Thank you!
     
  11. Daze

    Daze Member

    Joined:
    Sep 29, 2016
    Messages:
    160
    Likes Received:
    4
    Thank you
     
  12. hookedonspice

    hookedonspice Active Member

    Joined:
    Dec 7, 2015
    Messages:
    61
    Likes Received:
    148
  13. johnnosolo

    johnnosolo Member

    Joined:
    Dec 18, 2015
    Messages:
    608
    Likes Received:
    16
  14. Alexey

    Alexey Active Member

    Joined:
    Sep 29, 2014
    Messages:
    236
    Likes Received:
    79
    thanks
     
  15. Lasanha

    Lasanha New Member

    Joined:
    Jul 12, 2018
    Messages:
    15
    Likes Received:
    0
    thanks