P. Diddy - Come To Me (feat. Nicole Scherzinger) (TRACEURBANHD-1080i-MPA2.0-Djodjara)-HDMania

Discussion in 'TRACE URBAN HD' started by Djodjara, Nov 12, 2014.

  1. Djodjara

    Djodjara Gwen Fan Capper

    Joined:
    Sep 6, 2014
    Messages:
    774
    Likes Received:
    1,387
    P. Diddy - Come To Me (feat. Nicole Scherzinger) (TRACE HD - 1080i - Djodjara)

    [​IMG]


    General:
    ID : 38 (0x26)
    Format : MPEG-TS
    File size : 261 MiB
    Duration : 4mn 46s
    Overall bit rate mode : Variable
    Overall bit rate : 7 647 Kbps

    Video:
    ID : 1353 (0x549)
    Menu ID : 7059 (0x1B93)
    Format : AVC
    Format/Info : Advanced Video Codec
    Format profile : [email protected]
    Format settings, CABAC : Yes
    Format settings, ReFrames : 4 frames
    Codec ID : 27
    Duration : 4mn 46s
    Bit rate : 7 075 Kbps
    Width : 1 920 pixels
    Height : 1 080 pixels
    Display aspect ratio : 16:9
    Frame rate : 25.000 fps
    Standard : Component
    Color space : YUV
    Chroma subsampling : 4:2:0
    Bit depth : 8 bits
    Scan type : Interlaced
    Bits/(Pixel*Frame) : 0.136
    Stream size : 241 MiB (92%)
    Color primaries : BT.709
    Transfer characteristics : BT.709
    Matrix coefficients : BT.709

    Audio:
    ID : 3374 (0xD2E)
    Menu ID : 7059 (0x1B93)
    Format : MPEG Audio
    Format version : Version 1
    Format profile : Layer 2
    Codec ID : 4
    Duration : 4mn 46s
    Bit rate mode : Constant
    Bit rate : 192 Kbps
    Channel count : 2 channels
    Sampling rate : 48.0 KHz
    Compression mode : Lossy
    Delay relative to video : 26ms
    Stream size : 6.55 MiB (3%)
    Language : English

    Hidden Content:
    You must reply before you can see the hidden data contained here.
     
    curg, djtorrent, meisam.sch and 3 others like this.
  2. Loading...


  3. rhea

    rhea Well-Known Member

    Joined:
    Jan 6, 2014
    Messages:
    6,379
    Likes Received:
    606
    thank you so much :)
     
  4. ytyh

    ytyh Member

    Joined:
    Mar 30, 2014
    Messages:
    432
    Likes Received:
    4
    Thank you so, so much for this:D
     
  5. MCTR

    MCTR Active Member

    Joined:
    Feb 23, 2014
    Messages:
    295
    Likes Received:
    39
  6. quake2

    quake2 Well-Known Member

    Joined:
    Oct 11, 2014
    Messages:
    1,008
    Likes Received:
    56
  7. franklele

    franklele Well-Known Member

    Joined:
    Nov 11, 2013
    Messages:
    2,048
    Likes Received:
    101
    thank you
     
  8. Escalade1080p

    Escalade1080p Member

    Joined:
    Nov 20, 2013
    Messages:
    513
    Likes Received:
    14
    Thanks!!!
     
  9. Crusha

    Crusha Well-Known Member Capper

    Joined:
    Oct 15, 2014
    Messages:
    2,350
    Likes Received:
    2,473
    thanks
     
  10. sonnyfai8824

    sonnyfai8824 New Member

    Joined:
    Nov 28, 2014
    Messages:
    13
    Likes Received:
    3
    thanks
     
  11. withcap

    withcap Well-Known Member

    Joined:
    Oct 29, 2013
    Messages:
    1,648
    Likes Received:
    89
    Thank you!
     
  12. adam136

    adam136 Member

    Joined:
    Jan 8, 2015
    Messages:
    59
    Likes Received:
    2
    Thanks
     
  13. Chris

    Chris Member

    Joined:
    Oct 19, 2013
    Messages:
    613
    Likes Received:
    17
    Thank you
     
  14. getteg

    getteg Active Member

    Joined:
    Sep 24, 2014
    Messages:
    540
    Likes Received:
    31
    KOOL koool
     
  15. faz

    faz Member

    Joined:
    Jan 9, 2014
    Messages:
    269
    Likes Received:
    2
    Thank you so much!
     
  16. mehmet

    mehmet Member

    Joined:
    Nov 22, 2013
    Messages:
    140
    Likes Received:
    3
    thanks a lot
     
  17. tf135

    tf135 Well-Known Member

    Joined:
    Nov 14, 2014
    Messages:
    2,141
    Likes Received:
    117
    thank you
     
  18. sori

    sori Member

    Joined:
    Oct 22, 2013
    Messages:
    115
    Likes Received:
    0
    thank you
     
  19. sagor

    sagor Member

    Joined:
    Mar 24, 2014
    Messages:
    56
    Likes Received:
    1
    It's nice....
     
  20. klaus

    klaus Member

    Joined:
    Sep 11, 2014
    Messages:
    934
    Likes Received:
    17
    thank you
     
  21. Vinny

    Vinny Active Member

    Joined:
    Dec 26, 2013
    Messages:
    3,214
    Likes Received:
    20
    Thanks! ;D