One Republic - Apologize (Aaron Platt Version) (PCM-Master-720-FLK)

Discussion in 'MASTER & MASTER RIP' started by adam dark, Mar 1, 2014.

  1. adam dark

    adam dark Well-Known Member

    Joined:
    Dec 5, 2013
    Messages:
    2,475
    Likes Received:
    3,813
    One Republic - Apologize (Aaron Platt Version) (PCM-Master-720-FLK)

    [​IMG]
    [​IMG]
    [​IMG]
    [​IMG]
    Code:
    General
    Complete name                  : OneRepublic - Apologize (Aaron Platt Version) (PCM-Master-720-FLK).mov
    Format                        : MPEG-4
    Commercial name                : DVCPRO HD
    Format profile                : QuickTime
    Codec ID                      : qt
    File size                      : 1.23 GiB
    Duration                      : 3mn 42s
    Overall bit rate              : 47.6 Mbps
    Encoded date                  : UTC 2006-12-23 23:14:13
    Tagged date                    : UTC 2007-08-22 07:25:41
    Writing library                : Apple QuickTime
    
    Video
    ID                            : 4
    Format                        : DV
    Commercial name                : DVCPRO HD
    Codec ID                      : dvhp
    Duration                      : 3mn 42s
    Bit rate mode                  : Constant
    Bit rate                      : 46.0 Mbps
    Width                          : 936 pixels
    Original width                : 1 280 pixels
    Height                        : 702 pixels
    Original height                : 720 pixels
    Display aspect ratio          : 16:9
    Frame rate mode                : Constant
    Frame rate                    : 23.976 fps
    Original frame rate            : 59.940 fps
    Standard                      : NTSC
    Color space                    : YUV
    Chroma subsampling            : 4:2:2
    Bit depth                      : 10 bits
    Scan type                      : Progressive
    Original scan type            : Interlaced
    Original scan order            : Bottom Field First
    Compression mode              : Lossy
    Bits/(Pixel*Frame)            : 2.922
    Time code of first frame      : 00:00:00:00
    Time code source              : Subcode time code
    Stream size                    : 1.19 GiB (97%)
    Language                      : English
    Encoded date                  : UTC 2007-08-22 07:25:41
    Tagged date                    : UTC 2007-08-22 07:25:41
    Color primaries                : BT.709
    Transfer characteristics      : BT.709
    Matrix coefficients            : BT.709
    
    Audio
    ID                            : 2
    Format                        : PCM
    Format settings, Endianness    : Big
    Format settings, Sign          : Signed
    Codec ID                      : twos
    Duration                      : 3mn 42s
    Bit rate mode                  : Constant
    Bit rate                      : 1 536 Kbps
    Channel count                  : 2 channels
    Channel positions              : Front: L R
    Sampling rate                  : 48.0 KHz
    Bit depth                      : 16 bits
    Stream size                    : 40.7 MiB (3%)
    Language                      : English
    Encoded date                  : UTC 2006-12-23 23:14:13
    Tagged date                    : UTC 2006-12-23 23:16:09
    
    Other
    ID                            : 3
    Type                          : Time code
    Format                        : QuickTime TC
    Duration                      : 3mn 42s
    Time code of first frame      : 01:00:00:00
    Time code settings            : Striped
    Language                      : English
    Encoded date                  : UTC 2006-12-23 23:16:09
    Tagged date                    : UTC 2006-12-23 23:16:09



    Hidden Content:
    You must either reply or click 'Like' to see the hidden information contained here.
    Credit to ORIGINAL CAPPER
     
    Last edited: Sep 7, 2016
    alanlighter, Alias, rcj and 21 others like this.
  2. Loading...


  3. ryualviss

    ryualviss Active Member

    Joined:
    Jan 6, 2014
    Messages:
    151
    Likes Received:
    466
    from vidobz, i guess :victory:
     
  4. iPobreBR

    iPobreBR New Member

    Joined:
    Mar 16, 2014
    Messages:
    6
    Likes Received:
    0
    Thank you.
     
  5. Attention

    Attention Active Member

    Joined:
    Nov 30, 2013
    Messages:
    564
    Likes Received:
    29
    Thanks!
     
  6. talata

    talata Member

    Joined:
    Nov 14, 2013
    Messages:
    255
    Likes Received:
    5
    Finally is out here...
     
    adam dark likes this.
  7. adam dark

    adam dark Well-Known Member

    Joined:
    Dec 5, 2013
    Messages:
    2,475
    Likes Received:
    3,813
    I hope you enjoy it!! :D
     
  8. Osh Şarif

    Osh Şarif Well-Known Member

    Joined:
    Dec 29, 2013
    Messages:
    340
    Likes Received:
    647
    Thanks <3
     
  9. 江雨燃双鱼

    江雨燃双鱼 Active Member

    Joined:
    Apr 5, 2014
    Messages:
    585
    Likes Received:
    34
  10. Danilo Martins

    Danilo Martins Member Donor

    Joined:
    Apr 8, 2014
    Messages:
    90
    Likes Received:
    1
    obrigado, thank you
     
  11. iqson

    iqson Active Member

    Joined:
    Dec 30, 2013
    Messages:
    186
    Likes Received:
    65
    thanks
     
  12. jose morales

    jose morales New Member

    Joined:
    May 27, 2014
    Messages:
    2
    Likes Received:
    0
  13. adam dark

    adam dark Well-Known Member

    Joined:
    Dec 5, 2013
    Messages:
    2,475
    Likes Received:
    3,813
  14. dapape

    dapape Member

    Joined:
    Jun 9, 2014
    Messages:
    134
    Likes Received:
    1
  15. adam dark

    adam dark Well-Known Member

    Joined:
    Dec 5, 2013
    Messages:
    2,475
    Likes Received:
    3,813
    you're welcome!
     
  16. leiduancanhong

    leiduancanhong Member

    Joined:
    Jun 14, 2014
    Messages:
    112
    Likes Received:
    0
    god ,too big :oops:
     
  17. adam dark

    adam dark Well-Known Member

    Joined:
    Dec 5, 2013
    Messages:
    2,475
    Likes Received:
    3,813
    you're right, but the quality is amazing! :D
     
  18. slill

    slill Member

    Joined:
    Jul 25, 2014
    Messages:
    910
    Likes Received:
    9
    thanks for sharing
     
  19. rustynail

    rustynail New Member

    Joined:
    Jul 30, 2014
    Messages:
    2
    Likes Received:
    0
    Thank you.
     
  20. adam dark

    adam dark Well-Known Member

    Joined:
    Dec 5, 2013
    Messages:
    2,475
    Likes Received:
    3,813
    you're welcome!
     
  21. Jay4M

    Jay4M New Member

    Joined:
    Nov 7, 2014
    Messages:
    11
    Likes Received:
    0
    Thanks for sharing