One Direction: This Is Us (EXTENDED) [x265 1080p BrRip, DTS-Hossein Enr7que]

Discussion in 'Documentaries' started by Hossein Enr7que, Aug 27, 2017.

  1. Hossein Enr7que

    Hossein Enr7que Enriquette . ZQUAD . XO V . I . P. Uploader

    Joined:
    May 13, 2016
    Messages:
    1,341
    Likes Received:
    3,846
    [​IMG]
    General
    Unique ID : 181052144580025981789665486675470239440 (0x88355FEAA651389CA5BE9CDA597CC6D0)
    Complete name : F:\#Other\Documentary\One Direction This Is Us\One Direction This Is Us 2013 EXTENDED [x265 1080p BrRip-Hossein Enr7que].mkv
    Format : Matroska
    Format version : Version 4 / Version 2
    File size : 4.66 GiB
    Duration : 1 h 46 min
    Overall bit rate : 6 254 kb/s
    Movie name : One Direction: This Is Us 2013 EXTENDED [x265 1080p BrRip Hossein Enr7que]
    Encoded date : UTC 2017-08-26 21:26:34
    Writing application : mkvmerge v7.0.0 ('Where We Going') 64bit built on Jun 9 2014 15:16:27
    Writing library : libebml v1.3.0 + libmatroska v1.4.1

    Video
    ID : 1
    Format : HEVC
    Format/Info : High Efficiency Video Coding
    Format profile : Main@L4@Main
    Codec ID : V_MPEGH/ISO/HEVC
    Duration : 1 h 46 min
    Bit rate : 4 412 kb/s
    Width : 1 920 pixels
    Height : 1 036 pixels
    Display aspect ratio : 1.85:1
    Frame rate mode : Variable
    Frame rate : 23.976 FPS
    Original frame rate : 25.000 FPS
    Color space : YUV
    Chroma subsampling : 4:2:0
    Bit depth : 8 bits
    Bits/(Pixel*Frame) : 0.093
    Stream size : 3.29 GiB (71%)
    Title : Hossein Enr7que
    Writing library : x265 2.5+4-b4a5bcfe29c7:[Linux][GCC 5.4.0][64 bit] 8bit
    Encoding settings : cpuid=1173503 / frame-threads=3 / wpp / no-pmode / no-pme / no-psnr / no-ssim / log-level=2 / input-csp=1 / input-res=1920x1036 / interlace=0 / total-frames=0 / level-idc=0 / high-tier=1 / uhd-bd=0 / ref=3 / no-allow-non-conformance / no-repeat-headers / annexb / no-aud / no-hrd / info / hash=0 / no-temporal-layers / open-gop / min-keyint=25 / keyint=250 / bframes=4 / b-adapt=2 / b-pyramid / bframe-bias=0 / rc-lookahead=20 / lookahead-slices=6 / scenecut=40 / no-intra-refresh / ctu=64 / min-cu-size=8 / no-rect / no-amp / max-tu-size=32 / tu-inter-depth=1 / tu-intra-depth=1 / limit-tu=0 / rdoq-level=0 / dynamic-rd=0.00 / no-ssim-rd / signhide / no-tskip / nr-intra=0 / nr-inter=0 / no-constrained-intra / strong-intra-smoothing / max-merge=2 / limit-refs=3 / no-limit-modes / me=1 / subme=2 / merange=57 / temporal-mvp / weightp / no-weightb / no-analyze-src-pics / deblock=0:0 / sao / no-sao-non-deblock / rd=3 / no-early-skip / rskip / no-fast-intra / no-tskip-fast / no-cu-lossless / no-b-intra / rdpenalty=0 / psy-rd=2.00 / psy-rdoq=0.00 / no-rd-refine / analysis-reuse-mode=0 / no-lossless / cbqpoffs=0 / crqpoffs=0 / rc=abr / bitrate=4623 / qcomp=0.60 / qpstep=4 / stats-write=0 / stats-read=0 / ipratio=1.40 / pbratio=1.30 / aq-mode=1 / aq-strength=1.00 / cutree / zone-count=0 / no-strict-cbr / qg-size=32 / no-rc-grain / qpmax=69 / qpmin=0 / no-const-vbv / sar=1 / overscan=0 / videoformat=5 / range=0 / colorprim=2 / transfer=2 / colormatrix=2 / chromaloc=0 / display-window=0 / max-cll=0,0 / min-luma=0 / max-luma=255 / log2-max-poc-lsb=8 / vui-timing-info / vui-hrd-info / slices=1 / opt-qp-pps / opt-ref-list-length-pps / no-multi-pass-opt-rps / scenecut-bias=0.05 / no-opt-cu-delta-qp / no-aq-motion / no-hdr / no-hdr-opt / no-dhdr10-opt / analysis-reuse-level=5 / scale-factor=0 / refine-intra=0 / refine-inter=0 / refine-mv=0 / no-limit-sao / ctu-info=0
    Language : English
    Default : Yes
    Forced : No

    Audio #1
    ID : 2
    Format : DTS
    Format/Info : Digital Theater Systems
    Mode : 16
    Format settings, Endianness : Big
    Codec ID : A_DTS
    Duration : 1 h 46 min
    Bit rate mode : Constant
    Bit rate : 1 509 kb/s
    Channel(s) : 6 channels
    Channel positions : Front: L C R, Side: L R, LFE
    Sampling rate : 48.0 kHz
    Frame rate : 93.750 FPS (512 spf)
    Bit depth : 24 bits
    Compression mode : Lossy
    Stream size : 1.12 GiB (24%)
    Title : Hossein Enr7que
    Language : English
    Default : Yes
    Forced : Yes

    Audio #2
    ID : 3
    Format : AAC
    Format/Info : Advanced Audio Codec
    Format profile : LC
    Codec ID : A_AAC
    Duration : 1 h 46 min
    Bit rate : 321 kb/s
    Channel(s) : 6 channels
    Channel positions : Front: L C R, Side: L R, LFE
    Sampling rate : 48.0 kHz
    Frame rate : 46.875 FPS (1024 spf)
    Compression mode : Lossy
    Stream size : 245 MiB (5%)
    Title : Hossein Enr7que
    Language : English
    Default : No
    Forced : No

    Text #1
    ID : 4
    Format : VobSub
    Muxing mode : zlib
    Codec ID : S_VOBSUB
    Codec ID/Info : Picture based subtitle format used on DVDs
    Duration : 1 h 45 min
    Bit rate : 5 018 b/s
    Count of elements : 2733
    Stream size : 3.80 MiB (0%)
    Title : Hossein Enr7que
    Language : English
    Default : No
    Forced : No

    Text #2
    ID : 5
    Format : VobSub
    Muxing mode : zlib
    Codec ID : S_VOBSUB
    Codec ID/Info : Picture based subtitle format used on DVDs
    Duration : 1 h 45 min
    Bit rate : 4 039 b/s
    Count of elements : 1602
    Stream size : 3.05 MiB (0%)
    Title : Hossein Enr7que
    Language : English
    Default : No
    Forced : No

    Menu
    00:00:00.000 : :00:00:00.000
    00:05:49.057 : :00:05:49.057
    00:15:22.338 : :00:15:22.338
    00:20:16.549 : :00:20:16.549
    00:33:28.256 : :00:33:28.256
    00:38:57.710 : :00:38:57.710
    00:45:06.787 : :00:45:06.787
    00:53:08.352 : :00:53:08.352
    01:01:31.354 : :01:01:31.354
    01:06:04.252 : :01:06:04.252
    01:11:15.146 : :01:11:15.146
    01:13:35.828 : :01:13:35.828
    01:20:57.769 : :01:20:57.769
    01:25:55.525 : :01:25:55.525
    01:31:25.605 : :01:31:25.605
    01:36:26.781 : :01:36:26.781
    Server: MEGA
    Hidden Content:
    You must either reply or click 'Like' to see the hidden information contained here.
    Encoded by ME​
     
  2. Loading...


  3. Steliana

    Steliana Member

    Joined:
    Jul 12, 2016
    Messages:
    94
    Likes Received:
    5
    Thank you
     
  4. sennaabdul

    sennaabdul Member

    Joined:
    Apr 1, 2017
    Messages:
    129
    Likes Received:
    5
    thank you
     
  5. blakenichol

    blakenichol Member

    Joined:
    Jun 13, 2017
    Messages:
    37
    Likes Received:
    0
  6. Jessica2jung

    Jessica2jung Member

    Joined:
    Aug 21, 2017
    Messages:
    519
    Likes Received:
    4
    thank you
     
  7. Gussgiaa

    Gussgiaa Member

    Joined:
    Oct 23, 2017
    Messages:
    55
    Likes Received:
    2
    OMG THANKS
     
  8. ovo23

    ovo23 Member

    Joined:
    Jan 4, 2016
    Messages:
    153
    Likes Received:
    9
    thanks
     
  9. zacharypasha

    zacharypasha Member

    Joined:
    Aug 12, 2016
    Messages:
    39
    Likes Received:
    0
    thanks
     
  10. Winterheart

    Winterheart Member

    Joined:
    Oct 2, 2015
    Messages:
    123
    Likes Received:
    4
  11. woman!

    woman! Member

    Joined:
    Apr 18, 2017
    Messages:
    47
    Likes Received:
    2
    Could you also upload the original theatrical version? That would help loads!
     
  12. Therch

    Therch Member

    Joined:
    Mar 15, 2018
    Messages:
    92
    Likes Received:
    1
    Thanks!