One Direction - The Late Late Show With James Corden 14th May 2015 1080i HDTV DD5.1 MPEG2-Quaraxka

Discussion in 'Interviews / TV shows / Others' started by Dfrazzer, May 26, 2015.

  1. Dfrazzer

    Dfrazzer Super Moderator Staff Member Super Moderator Capper V . I . P. Donor

    Joined:
    Nov 4, 2013
    Messages:
    4,635
    Likes Received:
    9,948
    Requested by: ARUN1D

    [​IMG] [​IMG] [​IMG] [​IMG] [​IMG] [​IMG] [​IMG] [​IMG] [​IMG] [​IMG] [​IMG]

    Code:
    General
    ID : 1 (0x1)
    Complete name : C:\Users\Dfrazzer\Desktop\James.Corden.2015.05.14.One.Direction.1080i.HDTV.DD5.1.MPEG2-Quaraxkad.ts\James.Corden.2015.05.14.One.Direction.1080i.HDTV.DD5.1.MPEG2-Quaraxkad.ts
    Format : MPEG-TS
    File size : 3.17 GiB
    Duration : 39mn 43s
    Overall bit rate mode : Variable
    Overall bit rate : 11.4 Mbps
    Law rating : None
    
    Video
    ID : 49 (0x31)
    Menu ID : 1 (0x1)
    Format : MPEG Video
    Format version : Version 2
    Format profile : [email protected]
    Format settings, BVOP : Yes
    Format settings, Matrix : Custom
    Format settings, GOP : Variable
    Codec ID : 2
    Duration : 39mn 43s
    Bit rate mode : Variable
    Bit rate : 10.5 Mbps
    Maximum bit rate : 80.0 Mbps
    Width : 1 920 pixels
    Height : 1 080 pixels
    Display aspect ratio : 16:9
    Frame rate : 29.970 fps
    Color space : YUV
    Chroma subsampling : 4:2:0
    Bit depth : 8 bits
    Scan type : Interlaced
    Scan order : Top Field First
    Compression mode : Lossy
    Bits/(Pixel*Frame) : 0.168
    Time code of first frame : 00:00:00;00
    Time code source : Group of pictures header
    Stream size : 2.90 GiB (92%)
    
    Audio
    ID : 52 (0x34)
    Menu ID : 1 (0x1)
    Format : AC-3
    Format/Info : Audio Coding 3
    Mode extension : CM (complete main)
    Format settings, Endianness : Big
    Codec ID : 129
    Duration : 39mn 43s
    Bit rate mode : Constant
    Bit rate : 384 Kbps
    Channel(s) : 6 channels
    Channel positions : Front: L C R, Side: L R, LFE
    Sampling rate : 48.0 KHz
    Bit depth : 16 bits
    Compression mode : Lossy
    Delay relative to video : 13ms
    Stream size : 109 MiB (3%)
    Language : English
    
    Text #1
    ID : 49 (0x31)-CC1
    Menu ID : 1 (0x1)
    Format : EIA-608
    Muxing mode : A/53 / DTVCC Transport
    Muxing mode, more info : Muxed in Video #1
    Duration : 39mn 43s
    Bit rate mode : Constant
    Stream size : 0.00 Byte (0%)
    
    Text #2
    ID : 49 (0x31)-T1
    Menu ID : 1 (0x1)
    Format : EIA-608
    Muxing mode : A/53 / DTVCC Transport
    Muxing mode, more info : Muxed in Video #1
    Duration : 39mn 43s
    Bit rate mode : Constant
    Stream size : 0.00 Byte (0%)
    
    Text #3
    ID : 49 (0x31)-1
    Menu ID : 1 (0x1)
    Format : EIA-708
    Muxing mode : A/53 / DTVCC Transport
    Muxing mode, more info : Muxed in Video #1
    Duration : 39mn 43s
    Bit rate mode : Constant
    Stream size : 0.00 Byte (0%)
    
    Text #4
    ID : 49 (0x31)-2
    Menu ID : 1 (0x1)
    Format : EIA-708
    Muxing mode : A/53 / DTVCC Transport
    Muxing mode, more info : Muxed in Video #1
    Duration : 39mn 43s
    Bit rate mode : Constant
    Stream size : 0.00 Byte (0%)
    
    Hidden Content:
    You must reply before you can see the hidden data contained here.
    Original capper: Quaraxka
     
    vicky, alex, STASNedel and 2 others like this.
  2. Loading...


  3. 1D4EVER

    1D4EVER Active Member

    Joined:
    Dec 22, 2014
    Messages:
    356
    Likes Received:
    24
    Thank you so much :) :)
     
    Last edited: Jun 25, 2016
  4. usefuldo

    usefuldo Active Member

    Joined:
    Dec 19, 2013
    Messages:
    392
    Likes Received:
    27
    thank you
     
  5. Vanessa

    Vanessa Member

    Joined:
    Jan 16, 2014
    Messages:
    38
    Likes Received:
    0
    thank you so much
     
  6. mvlmoraes

    mvlmoraes Well-Known Member Donor

    Joined:
    Nov 22, 2013
    Messages:
    1,714
    Likes Received:
    276
    please.... re-post
     
  7. nanana

    nanana Member

    Joined:
    Dec 31, 2014
    Messages:
    67
    Likes Received:
    0
    thank you!
     
  8. STASNedel

    STASNedel Member

    Joined:
    Nov 22, 2013
    Messages:
    180
    Likes Received:
    3
    thank you
     
  9. alex

    alex Well-Known Member

    Joined:
    Nov 21, 2013
    Messages:
    4,552
    Likes Received:
    358
    thank you
     
  10. Mike Nalt

    Mike Nalt Member

    Joined:
    Mar 23, 2014
    Messages:
    93
    Likes Received:
    3
  11. spicyem

    spicyem Member

    Joined:
    Dec 17, 2015
    Messages:
    98
    Likes Received:
    2
    thanks!
     
  12. anita19campos

    anita19campos New Member

    Joined:
    Dec 18, 2015
    Messages:
    2
    Likes Received:
    0
  13. vicky

    vicky Member

    Joined:
    Apr 30, 2015
    Messages:
    59
    Likes Received:
    1
    thank you!!
     
  14. cryslee

    cryslee Active Member

    Joined:
    May 28, 2014
    Messages:
    234
    Likes Received:
    55
    Thank you :D
     
  15. Steliana

    Steliana Member

    Joined:
    Jul 12, 2016
    Messages:
    60
    Likes Received:
    2
  16. Dav0121

    Dav0121 New Member

    Joined:
    Jan 1, 2017
    Messages:
    15
    Likes Received:
    0
    thanks
     
  17. stylesy

    stylesy Member

    Joined:
    May 5, 2016
    Messages:
    40
    Likes Received:
    1
    thanks!
     
  18. limonroe95

    limonroe95 Member

    Joined:
    Apr 18, 2017
    Messages:
    37
    Likes Received:
    2
  19. letstylesbe

    letstylesbe New Member

    Joined:
    Apr 18, 2017
    Messages:
    21
    Likes Received:
    0
    thank you!
     
  20. eduardosantos

    eduardosantos Member

    Joined:
    Apr 18, 2017
    Messages:
    149
    Likes Received:
    6
  21. hwitingshek

    hwitingshek Member

    Joined:
    Dec 24, 2014
    Messages:
    43
    Likes Received:
    3