One Direction - Story Of My Life (M3HD-1080i-DD5.1-AmazonBoy) [CC]

Discussion in 'M3 HD' started by Dfrazzer, Jan 21, 2015.

  1. Dfrazzer

    Dfrazzer Super Moderator Staff Member Super Moderator Capper V . I . P. Donor

    Joined:
    Nov 4, 2013
    Messages:
    3,943
    Likes Received:
    7,933
    [​IMG] [​IMG] [​IMG] [​IMG] [​IMG] [​IMG]

    Code:
    General
    ID : 1 (0x1)
    Complete name : C:\Users\Dfrazzer\Desktop\One Direction - Story Of My Life (M3HD-1080i-AmazoBoy).ts
    Format : MPEG-TS
    File size : 421 MiB
    Duration : 4mn 8s
    Overall bit rate mode : Variable
    Overall bit rate : 14.2 Mbps
    Law rating : E
    
    Video
    ID : 1089 (0x441)
    Menu ID : 1 (0x1)
    Format : MPEG Video
    Format version : Version 2
    Format profile : [email protected]
    Format settings, BVOP : Yes
    Format settings, Matrix : Custom
    Format settings, GOP : Variable
    Codec ID : 2
    Duration : 4mn 8s
    Bit rate mode : Variable
    Bit rate : 13.1 Mbps
    Maximum bit rate : 24.0 Mbps
    Width : 1 920 pixels
    Height : 1 080 pixels
    Display aspect ratio : 16:9
    Frame rate : 29.970 fps
    Color space : YUV
    Chroma subsampling : 4:2:0
    Bit depth : 8 bits
    Compression mode : Lossy
    Bits/(Pixel*Frame) : 0.211
    Time code of first frame : 00:00:00;00
    Time code source : Group of pictures header
    Stream size : 389 MiB (92%)
    Writing library : (c) 1998-2012 Womble Multimedia, Inc. / MPEG Video Wizard DVD 5.0.1.100 (03/2011) / Sep 22 2012
    
    Audio
    ID : 1090 (0x442)
    Menu ID : 1 (0x1)
    Format : AC-3
    Format/Info : Audio Coding 3
    Mode extension : CM (complete main)
    Format settings, Endianness : Big
    Codec ID : 129
    Duration : 4mn 8s
    Bit rate mode : Constant
    Bit rate : 384 Kbps
    Channel(s) : 6 channels
    Channel positions : Front: L C R, Side: L R, LFE
    Sampling rate : 48.0 KHz
    Bit depth : 16 bits
    Compression mode : Lossy
    Stream size : 11.4 MiB (3%)
    Language : English
    
    Text #1
    ID : 1089 (0x441)-CC1
    Menu ID : 1 (0x1)
    Format : EIA-608
    Muxing mode : A/53 / DTVCC Transport
    Muxing mode, more info : Muxed in Video #1
    Duration : 4mn 8s
    Bit rate mode : Constant
    Stream size : 0.00 Byte (0%)
    
    Text #2
    ID : 1089 (0x441)-1
    Menu ID : 1 (0x1)
    Format : EIA-708
    Muxing mode : A/53 / DTVCC Transport
    Muxing mode, more info : Muxed in Video #1
    Duration : 4mn 8s
    Bit rate mode : Constant
    Stream size : 0.00 Byte (0%)
    
    Hidden Content:
    You must reply before you can see the hidden data contained here.
    Capped by: AmazoBoy
     
    Last edited: Jul 30, 2015
    Dave, 1D4EVER and rhea like this.
  2. rhea

    rhea Well-Known Member

    Joined:
    Jan 6, 2014
    Messages:
    5,404
    Likes Received:
    262
    thank you so much!
     
  3. talata

    talata Member

    Joined:
    Nov 14, 2013
    Messages:
    255
    Likes Received:
    5
    Thanks so much !
     
  4. 1D4EVER

    1D4EVER Active Member

    Joined:
    Dec 22, 2014
    Messages:
    338
    Likes Received:
    22
    Excellent Share :)
     
  5. Joseph

    Joseph Active Member

    Joined:
    Dec 10, 2013
    Messages:
    733
    Likes Received:
    152
    thank you! :D
     
  6. ytyh

    ytyh Member

    Joined:
    Mar 30, 2014
    Messages:
    432
    Likes Received:
    4
    thank you very much
     
  7. rashka

    rashka Member

    Joined:
    Apr 8, 2014
    Messages:
    200
    Likes Received:
    7
    thank you so much!
     
  8. Dave

    Dave Well-Known Member

    Joined:
    Jun 2, 2015
    Messages:
    549
    Likes Received:
    283
     
  9. Vinny

    Vinny Active Member

    Joined:
    Dec 26, 2013
    Messages:
    1,827
    Likes Received:
    8
    Thank U!
     
  10. Mihaly Halasz

    Mihaly Halasz Member

    Joined:
    Nov 23, 2013
    Messages:
    43
    Likes Received:
    0
    Thank youu
     
  11. cristianfande1D

    cristianfande1D Member

    Joined:
    Feb 6, 2014
    Messages:
    164
    Likes Received:
    4
    muchas graciass
     
  12. Dfrazzer

    Dfrazzer Super Moderator Staff Member Super Moderator Capper V . I . P. Donor

    Joined:
    Nov 4, 2013
    Messages:
    3,943
    Likes Received:
    7,933
    I just added a new link to my post.
     
  13. moon2k

    moon2k Member

    Joined:
    Jul 21, 2015
    Messages:
    110
    Likes Received:
    3
    thank
     
  14. Ardy

    Ardy Active Member

    Joined:
    Dec 2, 2013
    Messages:
    129
    Likes Received:
    215
    Thank you!
     
  15. janito33

    janito33 Member

    Joined:
    Dec 10, 2014
    Messages:
    136
    Likes Received:
    1
    GRACIAS POR EL VIDEO
     
  16. arnold

    arnold Member

    Joined:
    Oct 29, 2014
    Messages:
    232
    Likes Received:
    3
    thank you.
     
  17. hemunshu

    hemunshu Member

    Joined:
    Feb 12, 2016
    Messages:
    92
    Likes Received:
    1