FEED One Direction & Ronnie Wood - Where Do Broken Hearts Go @ X Factor UK Final 14/12/2014 1080i FEED

Discussion in 'HD Live Performances' started by nitrocell, Mar 13, 2018.

  1. nitrocell

    nitrocell
    Administrator
    Staff Member AdMiN Capper

    Joined:
    Nov 18, 2013
    Messages:
    807
    Likes Received:
    6,034
    [​IMG]


    Code:
    General
    ID                          : 16 (0x10)
    Complete name               : One Direction featuring Ronnie Wood - Where Do Broken Hearts Go - X Factor Final - (Edited).ts
    Format                      : MPEG-TS
    File size                   : 1.92 GiB
    Duration                    : 6 min 3 s
    Overall bit rate mode       : Variable
    Overall bit rate            : 45.4 Mb/s
    
    Video
    ID                          : 256 (0x100)
    Menu ID                     : 1 (0x1)
    Format                      : AVC
    Format/Info                 : Advanced Video Codec
    Format profile              : Main@L5
    Format settings             : CABAC / 4 Ref Frames
    Format settings, CABAC      : Yes
    Format settings, ReFrames   : 4 frames
    Codec ID                    : 27
    Duration                    : 6 min 4 s
    Bit rate                    : 42.8 Mb/s
    Width                       : 1 920 pixels
    Height                      : 1 080 pixels
    Display aspect ratio        : 16:9
    Frame rate mode             : Variable
    Color space                 : YUV
    Chroma subsampling          : 4:2:0
    Bit depth                   : 8 bits
    Scan type                   : Progressive
    Stream size                 : 1.81 GiB (94%)
    
    Audio
    ID                          : 257 (0x101)
    Menu ID                     : 1 (0x1)
    Format                      : MPEG Audio
    Format version              : Version 1
    Format profile              : Layer 2
    Codec ID                    : 4
    Duration                    : 6 min 3 s
    Bit rate mode               : Constant
    Bit rate                    : 384 kb/s
    Channel(s)                  : 2 channels
    Sampling rate               : 48.0 kHz
    Frame rate                  : 41.667 FPS (1152 SPF)
    Compression mode            : Lossy
    Delay relative to video     : 8 ms
    Stream size                 : 16.7 MiB (1%)
    Language                    : English
    Language, more info         : Clean effects
    Hidden Content:
    You must either reply or click 'Like' to see the hidden information contained here.
     
    Steliana, rkn9, Vinny and 5 others like this.
  2. Loading...


  3. flickervinyl

    flickervinyl Active Member

    Joined:
    Nov 28, 2017
    Messages:
    229
    Likes Received:
    89
    thank you so much!!!!!!!!
     
  4. multimediafm

    multimediafm Well-Known Member Donor

    Joined:
    Mar 27, 2014
    Messages:
    12,377
    Likes Received:
    965
  5. CELOBRAZiL

    CELOBRAZiL Well-Known Member Capper V . I . P. Donor

    Joined:
    Oct 2, 2013
    Messages:
    4,979
    Likes Received:
    15,824
    Thank you so much! :)