OMI - Cheerleader (Felix Jaehn Remix) (BridgeHD-1080i-MP2-Olgold)-HDMania

Discussion in 'Bridge HD' started by Olgold, Oct 17, 2016.

  1. Olgold

    Olgold Well-Known Member Capper

    Joined:
    Aug 19, 2015
    Messages:
    436
    Likes Received:
    1,653
    OMI - Cheerleader (Felix Jaehn Remix)
    [​IMG]
    General
    Format : MPEG-TS
    File size : 149 MiB
    Duration : 2 min 58 s
    Overall bit rate mode : Variable
    Overall bit rate : 6 830 kb/s

    Video
    Format : AVC
    Format/Info : Advanced Video Codec
    Format profile : [email protected]
    Format settings, CABAC : Yes
    Format settings, ReFrames : 4 frames
    Duration : 2 min 56 s
    Bit rate : 6 299 kb/s
    Width : 1 920 pixels
    Height : 1 080 pixels
    Display aspect ratio : 16:9
    Frame rate : 25.000 FPS
    Standard : Component
    Color space : YUV
    Chroma subsampling : 4:2:0
    Bit depth : 8 bits
    Scan type : Interlaced
    Scan type, store method : Separated fields
    Scan order : Top Field First
    Bits/(Pixel*Frame) : 0.122
    Stream size : 132 MiB (89%)
    Color range : Limited

    Audio
    Format : MPEG Audio
    Format version : Version 1
    Format profile : Layer 2
    Duration : 2 min 58 s
    Bit rate mode : Constant
    Bit rate : 192 kb/s
    Channel(s) : 2 channels
    Sampling rate : 48.0 kHz
    Compression mode : Lossy
    Delay relative to video : -708 ms
    Stream size : 4.09 MiB (3%)
    Password: Olgold

    Hidden Content:
    You must reply before you can see the hidden data contained here.
     
    lyana94, rhea and CELOBRAZiL like this.
  2. dersullana

    dersullana Active Member

    Joined:
    Dec 21, 2015
    Messages:
    612
    Likes Received:
    41
  3. CELOBRAZiL

    CELOBRAZiL Well-Known Member Capper V . I . P. Donor

    Joined:
    Oct 2, 2013
    Messages:
    3,117
    Likes Received:
    9,030
    Thank you so much! :)
     
  4. rhea

    rhea Well-Known Member

    Joined:
    Jan 6, 2014
    Messages:
    6,230
    Likes Received:
    524
    thank you so much :)
     
  5. Flaxdevil

    Flaxdevil Member

    Joined:
    May 25, 2014
    Messages:
    210
    Likes Received:
    8
    Gracias
     
  6. lyana94

    lyana94 Active Member

    Joined:
    Jul 5, 2017
    Messages:
    1,129
    Likes Received:
    23
    thanks