FEED Olympics.2016.Opening.Ceremony.Feed.1080i.HDTV.H264.DD5.1-SbR

Discussion in 'Interviews / TV shows / Others' started by CELOBRAZiL, Aug 11, 2016.

  1. CELOBRAZiL

    CELOBRAZiL Well-Known Member Capper V . I . P. Donor

    Joined:
    Oct 2, 2013
    Messages:
    2,273
    Likes Received:
    6,241
    Olympics.2016.Opening.Ceremony.Feed.1080i.HDTV.H264.DD5.1-SbR

    [​IMG]

    Source: Sat Feed ARD/ZDF (AVC High 4:2:[email protected], 18.5 Mbps, 1920x1080i (16:9); 25.000 fps)
    Audio: English (Feed BBC Sport, AC3; 48000 Hz; 2 ch; 320 kbps)
    Commentary Free (Feed, AC3; 48000 Hz; 6 ch; 640 kbps)



    Format : Matroska
    Format version : Version 4 / Version 2
    File size : 32.6 GiB
    Duration : 4h 0mn
    Overall bit rate mode : Constant
    Overall bit rate : 19.5 Mbps
    Encoded date : UTC 2016-08-06 23:17:05
    Writing application : mkvmerge v9.2.0 ('Photograph') 64bit
    Writing library : libebml v1.3.3 + libmatroska v1.4.4
    DURATION : 04:00:01.920000000
    NUMBER_OF_FRAMES : 450060
    NUMBER_OF_BYTES : 1152153600
    _STATISTICS_WRITING_APP : mkvmerge v9.2.0 ('Photograph') 64bit
    _STATISTICS_WRITING_DATE_UTC : 2016-08-06 23:17:05
    _STATISTICS_TAGS : BPS DURATION NUMBER_OF_FRAMES NUMBER_OF_BYTES

    Video
    ID : 1
    Format : AVC
    Format/Info : Advanced Video Codec
    Format profile : High 4:2:[email protected]
    Format settings, CABAC : Yes
    Format settings, ReFrames : 2 frames
    Codec ID : V_MPEG4/ISO/AVC
    Duration : 4h 0mn
    Bit rate mode : Constant
    Bit rate : 18.5 Mbps
    Width : 1 920 pixels
    Height : 1 080 pixels
    Display aspect ratio : 16:9
    Frame rate mode : Constant
    Frame rate : 25.000 fps
    Color space : YUV
    Chroma subsampling : 4:2:2
    Bit depth : 8 bits
    Scan type : Interlaced
    Scan order : Top Field First
    Bits/(Pixel*Frame) : 0.357
    Stream size : 30.4 GiB (93%)
    Default : Yes
    Forced : No
    Color range : Limited
    Color primaries : BT.709
    Transfer characteristics : BT.709
    Matrix coefficients : BT.709

    Audio #1
    ID : 2
    Format : AC-3
    Format/Info : Audio Coding 3
    Mode extension : CM (complete main)
    Format settings, Endianness : Big
    Codec ID : A_AC3
    Duration : 4h 0mn
    Bit rate mode : Constant
    Bit rate : 320 Kbps
    Channel(s) : 2 channels
    Channel positions : Front: L R
    Sampling rate : 48.0 KHz
    Bit depth : 16 bits
    Compression mode : Lossy
    Stream size : 549 MiB (2%)
    Language : English
    Default : Yes
    Forced : No

    Audio #2
    ID : 3
    Format : AC-3
    Format/Info : Audio Coding 3
    Mode extension : CM (complete main)
    Format settings, Endianness : Big
    Codec ID : A_AC3
    Duration : 4h 0mn
    Bit rate mode : Constant
    Bit rate : 640 Kbps
    Channel(s) : 6 channels
    Channel positions : Front: L C R, Side: L R, LFE
    Sampling rate : 48.0 KHz
    Bit depth : 16 bits
    Compression mode : Lossy
    Stream size : 1.07 GiB (3%)
    Default : No
    Forced : No

    Link(s):
    Hidden Content:
    You must either reply or click 'Like' to see the hidden information contained here.
     
    Last edited: Aug 23, 2016
    Rodrigobatata, rkn9, Snorom6 and 9 others like this.
  2. CELOBRAZiL

    CELOBRAZiL Well-Known Member Capper V . I . P. Donor

    Joined:
    Oct 2, 2013
    Messages:
    2,273
    Likes Received:
    6,241
    I'm uploading... Just waiting... :)
     
  3. detroit1

    detroit1 Well-Known Member

    Joined:
    Jan 6, 2014
    Messages:
    1,981
    Likes Received:
    204
    thank you
     
    CELOBRAZiL likes this.
  4. Dream66

    Dream66 Active Member

    Joined:
    Jan 24, 2016
    Messages:
    275
    Likes Received:
    65
    Thanks I'ts just beautiful :super:
     
    CELOBRAZiL likes this.
  5. CELOBRAZiL

    CELOBRAZiL Well-Known Member Capper V . I . P. Donor

    Joined:
    Oct 2, 2013
    Messages:
    2,273
    Likes Received:
    6,241
    I finished the upload now! :)
     
  6. royevilone

    royevilone Well-Known Member

    Joined:
    Feb 16, 2016
    Messages:
    789
    Likes Received:
    368
    Thank you !
     
    CELOBRAZiL likes this.
  7. HaroldoNaLata

    HaroldoNaLata New Member

    Joined:
    Aug 22, 2016
    Messages:
    3
    Likes Received:
    0
    Thank you!!!!
     
  8. jerryyu2017

    jerryyu2017 New Member

    Joined:
    Dec 30, 2016
    Messages:
    3
    Likes Received:
    0
    这次里约办奥运会只有糟糕俩字才能形容