Olly Murs Ft. Demi Lovato - Up 576p SDMania

Discussion in 'SD Live Performances' started by Dfrazzer, Dec 14, 2014.

  1. Dfrazzer

    Dfrazzer Super Moderator Staff Member Super Moderator Capper V . I . P. Donor

    Joined:
    Nov 4, 2013
    Messages:
    5,969
    Likes Received:
    15,394
    [​IMG] [​IMG] [​IMG]

    Code:
    General
    ID : 1 (0x1)
    Complete name : C:\Users\Dfrazzer\Desktop\Olly Murs Ft. Demi Lovato - Up 576p SDMania.ts
    Format : MPEG-TS
    File size : 188 MiB
    Duration : 3mn 44s
    Overall bit rate mode : Variable
    Overall bit rate : 7 026 Kbps
    
    Video
    ID : 100 (0x64)
    Menu ID : 1 (0x1)
    Format : AVC
    Format/Info : Advanced Video Codec
    Format profile : Main@L3.1
    Format settings, CABAC : Yes
    Format settings, ReFrames : 3 frames
    Codec ID : 27
    Duration : 3mn 44s
    Bit rate mode : Variable
    Bit rate : 6 009 Kbps
    Maximum bit rate : 12.0 Mbps
    Width : 1 024 pixels
    Height : 576 pixels
    Display aspect ratio : 16:9
    Frame rate : 25.000 fps
    Standard : PAL
    Color space : YUV
    Chroma subsampling : 4:2:0
    Bit depth : 8 bits
    Scan type : Interlaced
    Scan order : Top Field First
    Bits/(Pixel*Frame) : 0.407
    Stream size : 161 MiB (85%)
    
    Audio #1
    ID : 101 (0x65)
    Menu ID : 1 (0x1)
    Format : AAC
    Format/Info : Advanced Audio Codec
    Format version : Version 4
    Format profile : LC
    Muxing mode : ADTS
    Codec ID : 15
    Duration : 3mn 44s
    Bit rate mode : Variable
    Bit rate : 222 Kbps
    Channel(s) : 2 channels
    Channel positions : Front: L R
    Sampling rate : 48.0 KHz
    Compression mode : Lossy
    Stream size : 5.95 MiB (3%)
    
    Audio #2
    ID : 103 (0x67)
    Menu ID : 1 (0x1)
    Format : AAC
    Format/Info : Advanced Audio Codec
    Format version : Version 4
    Format profile : LC
    Muxing mode : ADTS
    Codec ID : 15
    Duration : 3mn 44s
    Bit rate mode : Variable
    Bit rate : 222 Kbps
    Channel(s) : 2 channels
    Channel positions : Front: L R
    Sampling rate : 48.0 KHz
    Compression mode : Lossy
    Stream size : 5.95 MiB (3%)
    
    Audio #3
    ID : 105 (0x69)
    Menu ID : 1 (0x1)
    Format : AAC
    Format/Info : Advanced Audio Codec
    Format version : Version 4
    Format profile : LC
    Muxing mode : ADTS
    Codec ID : 15
    Duration : 3mn 44s
    Bit rate mode : Variable
    Bit rate : 220 Kbps
    Channel(s) : 2 channels
    Channel positions : Front: L R
    Sampling rate : 48.0 KHz
    Compression mode : Lossy
    Stream size : 5.89 MiB (3%)
    
    Hidden Content:
    You must reply before you can see the hidden data contained here.
    Capped by me.
     
    Katheryn, shlanderous and joelh20101 like this.
  2. Loading...


  3. joelh20101

    joelh20101 Well-Known Member

    Joined:
    Nov 4, 2013
    Messages:
    1,539
    Likes Received:
    163
  4. Snorom6

    Snorom6 Well-Known Member V . I . P. Uploader

    Joined:
    Dec 17, 2015
    Messages:
    4,246
    Likes Received:
    7,172