BDRiP Oasis - Supersonic Documentary 2016 BDRip 1080p-cadaver (+ENG Subs)

Discussion in 'DVD & BLURAY' started by tknobi, Dec 11, 2016.

  1. tknobi

    tknobi Well-Known Member

    Joined:
    Feb 22, 2014
    Messages:
    437
    Likes Received:
    760
    [​IMG]

    Oasis: Supersonic (2016) is a British music documentary directed by Mat Whitecross and British-Indian director of the Oscar winning film Amy, filmmaker Asif Kapadia, who worked on this film as an executive producer.The Production Companies associated with the film are; Mint Pictures, Nemperor and On The Corner Films and is distributed in the UK by Entertainment One and Lorton Distribution.


    Quality : BDRip 1080p
    Container : MKV
    Video : 1920x1080, 25FPS , 10.7Mbps
    Audio : DTS , 6ch , 24bits , 1509Kbps

    HTML:
    Video
    ID                                       : 2
    Format                                   : AVC
    Format/Info                              : Advanced Video Codec
    Format profile                           : [email protected]
    Format settings, CABAC                   : Yes
    Format settings, ReFrames                : 4 frames
    Codec ID                                 : V_MPEG4/ISO/AVC
    Duration                                 : 1h 57mn
    Bit rate                                 : 9 186 Kbps
    Width                                    : 1 920 pixels
    Height                                   : 1 040 pixels
    Display aspect ratio                     : 1.85:1
    Frame rate mode                          : Constant
    Frame rate                               : 25.000 fps
    Color space                              : YUV
    Chroma subsampling                       : 4:2:0
    Bit depth                                : 8 bits
    Scan type                                : Progressive
    Bits/(Pixel*Frame)                       : 0.184
    Stream size                              : 7.34 GiB (84%)
    Writing library                          : x264 core 148 r2721 72d53ab
    Encoding settings                        : cabac=1 / ref=4 / deblock=1:-3:-3 / analyse=0x3:0x133 / me=umh / subme=8 / psy=1 / psy_rd=1.00:0.00 / mixed_ref=1 / me_range=16 / chroma_me=1 / trellis=1 / 8x8dct=1 / cqm=0 / deadzone=21,11 / fast_pskip=0 / chroma_qp_offset=-2 / threads=6 / lookahead_threads=1 / sliced_threads=0 / nr=0 / decimate=1 / interlaced=0 / bluray_compat=0 / constrained_intra=0 / bframes=3 / b_pyramid=2 / b_adapt=1 / b_bias=0 / direct=3 / weightb=1 / open_gop=0 / weightp=2 / keyint=250 / keyint_min=25 / scenecut=40 / intra_refresh=0 / rc_lookahead=50 / rc=2pass / mbtree=1 / bitrate=9186 / ratetol=1.0 / qcomp=0.60 / qpmin=0 / qpmax=69 / qpstep=4 / cplxblur=20.0 / qblur=0.5 / vbv_maxrate=62500 / vbv_bufsize=78125 / nal_hrd=none / filler=0 / ip_ratio=1.40 / aq=1:1.00
    Default                                  : Yes
    Forced                                   : No
    
    Audio
    ID                                       : 1
    Format                                   : DTS
    Format/Info                              : Digital Theater Systems
    Mode                                     : 16
    Format settings, Endianness              : Big
    Codec ID                                 : A_DTS
    Duration                                 : 1h 57mn
    Bit rate mode                            : Constant
    Bit rate                                 : 1 509 Kbps
    Channel(s)                               : 6 channels
    Channel positions                        : Front: L C R, Side: L R, LFE
    Sampling rate                            : 48.0 KHz
    Frame rate                               : 93.750 fps (512 spf)
    Bit depth                                : 24 bits
    Compression mode                         : Lossy
    Stream size                              : 1.23 GiB (14%)
    Language                                 : English
    Default                                  : Yes
    Forced                                   : No




    All Credit To CADAVER

    MEGA
    Hidden Content:
    You must reply before you can see the hidden data contained here.
     
    asithappens and Pacofran80 like this.
  2. Ju55

    Ju55 Active Member

    Joined:
    Jul 10, 2015
    Messages:
    773
    Likes Received:
    128
    THANK YOU SO MUCH!!!!!
     
  3. ibrom

    ibrom Member

    Joined:
    Dec 9, 2016
    Messages:
    34
    Likes Received:
    0
    thank you
     
  4. gstnedgrdrch93

    gstnedgrdrch93 Member

    Joined:
    Oct 12, 2014
    Messages:
    50
    Likes Received:
    1
    Thanks so!
     
  5. languido

    languido Member

    Joined:
    Jun 2, 2016
    Messages:
    53
    Likes Received:
    2
    Muchas gracias!
     
  6. renegadepoet

    renegadepoet New Member

    Joined:
    Feb 27, 2017
    Messages:
    24
    Likes Received:
    1
    WOW Thank you so much!