Oasis - Champagne Supernova (MTVPulse-1080i-DD2.0)-Olgold

Discussion in 'MTV PULSE HD' started by Olgold, Aug 27, 2015.

  1. Olgold

    Olgold Well-Known Member Capper

    Joined:
    Aug 19, 2015
    Messages:
    436
    Likes Received:
    1,797
    [​IMG]
    General
    Format : MPEG-TS
    File size : 392 MiB
    Duration : 7mn 26s
    Overall bit rate mode : Variable
    Overall bit rate : 7 356 Kbps

    Video

    Format : AVC
    Format/Info : Advanced Video Codec
    Format profile : High@L4
    Format settings, CABAC : Yes
    Format settings, ReFrames : 4 frames
    Duration : 7mn 26s
    Bit rate : 6 734 Kbps
    Width : 1 920 pixels
    Height : 1 080 pixels
    Display aspect ratio : 16:9
    Frame rate : 25.000 fps
    Standard : Component
    Color space : YUV
    Chroma subsampling : 4:2:0
    Bit depth : 8 bits
    Scan type : MBAFF
    Scan order : Top Field First
    Bits/(Pixel*Frame) : 0.130
    Stream size : 358 MiB (91%)
    Color range : Limited

    Audio
    Format : AC-3
    Format/Info : Audio Coding 3
    Mode extension : CM (complete main)
    Format settings, Endianness : Big
    Duration : 7mn 26s
    Bit rate mode : Constant
    Bit rate : 256 Kbps
    Channel(s) : 2 channels
    Channel positions : Front: L R
    Sampling rate : 48.0 KHz
    Compression mode : Lossy
    Delay relative to video : 112ms
    Stream size : 13.6 MiB (3%)
    Language : French

    Hidden Content:
    You must reply before you can see the hidden data contained here.
     
  2. Loading...


  3. rhea

    rhea Well-Known Member

    Joined:
    Jan 6, 2014
    Messages:
    8,081
    Likes Received:
    1,112
    thank you so much
     
  4. austin98989

    austin98989 New Member

    Joined:
    Nov 19, 2015
    Messages:
    8
    Likes Received:
    0
    Thank you!
     
  5. Flaxdevil

    Flaxdevil Member

    Joined:
    May 25, 2014
    Messages:
    285
    Likes Received:
    12
    great video
     
  6. clublandtiger

    clublandtiger Well-Known Member Capper Uploader Donor

    Joined:
    Apr 4, 2016
    Messages:
    404
    Likes Received:
    2,905
    cheers young man
     
  7. killers23

    killers23 Active Member

    Joined:
    Feb 27, 2015
    Messages:
    874
    Likes Received:
    98
    thank you
     
  8. tknobi

    tknobi Well-Known Member

    Joined:
    Feb 22, 2014
    Messages:
    676
    Likes Received:
    1,629
    Thanks!!! :)
     
  9. Jorge Barrionuevo

    Jorge Barrionuevo Well-Known Member

    Joined:
    Jun 9, 2015
    Messages:
    1,491
    Likes Received:
    638
    GRACIAS!
     
  10. nevha

    nevha New Member

    Joined:
    Jul 1, 2016
    Messages:
    20
    Likes Received:
    0
    thank you
     
  11. tapions

    tapions Well-Known Member

    Joined:
    Aug 30, 2016
    Messages:
    1,022
    Likes Received:
    90
    gracias
     
  12. danicoteca

    danicoteca Member

    Joined:
    Sep 10, 2016
    Messages:
    183
    Likes Received:
    17
  13. alvarojam

    alvarojam Member

    Joined:
    Mar 21, 2016
    Messages:
    147
    Likes Received:
    13
    thanks a lot!!!
     
  14. millerfame73

    millerfame73 New Member

    Joined:
    Aug 9, 2017
    Messages:
    29
    Likes Received:
    8
    thanks a lot
     
  15. Albano Salinas

    Albano Salinas Well-Known Member

    Joined:
    Nov 6, 2014
    Messages:
    506
    Likes Received:
    1,287
    thanks so much!
     
  16. ildson

    ildson Active Member

    Joined:
    Nov 4, 2017
    Messages:
    449
    Likes Received:
    38
    thanks
     
  17. bobuk8888

    bobuk8888 Member

    Joined:
    Jul 15, 2016
    Messages:
    153
    Likes Received:
    6