Nova & Jory Feat. Daddy Yankee "Aprovecha" [ProResHQ-PCM-1080P]

Discussion in 'PRORES HD' started by dgol22, May 22, 2020 at 9:42 PM.

  1. dgol22

    dgol22 Well-Known Member

    Joined:
    Sep 2, 2018
    Messages:
    276
    Likes Received:
    304
    Nova & Jory Feat. Daddy Yankee "Aprovecha" [ProResHQ-PCM-1080P]


    [​IMG]


    [​IMG]


    General
    Complete name : Nova & Jory Feat. Daddy Yankee "Aprovecha".mov
    Format : MPEG-4
    Format profile : QuickTime
    Codec ID : qt
    File size : 4.93 GiB
    Duration : 4mn 1s
    Overall bit rate mode : Variable
    Overall bit rate : 175 Mbps
    Encoded date : UTC 2012-01-13 00:23:31
    Tagged date : UTC 2012-01-13 00:26:15
    Writing library : Apple QuickTime
    Media/UUID : 6087A9D5-77E7-4E04-8C1A-6B945A8C05DD

    Video
    ID : 1
    Format : ProRes
    Format version : Version 0
    Format profile : High
    Codec ID : apch
    Duration : 4mn 1s
    Bit rate mode : Variable
    Bit rate : 174 Mbps
    Width : 1 888 pixels
    Original width : 1 920 pixels
    Height : 1 062 pixels
    Original height : 1 080 pixels
    Display aspect ratio : 16:9
    Frame rate mode : Constant
    Frame rate : 23.976 fps
    Color space : YUV
    Chroma subsampling : 4:2:2
    Scan type : Progressive
    Bits/(Pixel*Frame) : 3.612
    Stream size : 4.89 GiB (99%)
    Writing library : Apple
    Language : English
    Encoded date : UTC 2012-01-13 00:23:31
    Tagged date : UTC 2012-01-13 00:26:15
    Color primaries : BT.709
    Transfer characteristics : BT.709
    Matrix coefficients : BT.709

    Audio
    ID : 2
    Format : PCM
    Format settings, Endianness : Little
    Format settings, Sign : Signed
    Codec ID : sowt
    Duration : 4mn 1s
    Bit rate mode : Constant
    Bit rate : 1 536 Kbps
    Channel(s) : 2 channels
    Channel positions : Front: L R
    Sampling rate : 48.0 KHz
    Bit depth : 16 bits
    Stream size : 44.3 MiB (1%)
    Language : English
    Encoded date : UTC 2012-01-13 00:23:31
    Tagged date : UTC 2012-01-13 00:26:15

    Other
    ID : 3
    Type : Time code
    Format : QuickTime TC
    Duration : 4mn 1s
    Time code of first frame : 01:00:32:17
    Time code settings : Striped
    Language : English
    Encoded date : UTC 2012-01-13 00:26:15
    Tagged date : UTC 2012-01-13 00:26:15



    Hidden Content:
    You must reply before you can see the hidden data contained here.
     
    joe007, rus31, logrono and 1 other person like this.
  2. Loading...

    Similar Threads
    1. Rubn4
      Replies:
      12
      Views:
      381

  3. Gustavofl91

    Gustavofl91 Gustavofl

    Joined:
    May 11, 2017
    Messages:
    1,167
    Likes Received:
    136
    Excelente aporte , tendrias Que Tengo Que Hacer o Lo Que Paso Paso De Daddy Yankee?
     
    Last edited: May 22, 2020 at 10:25 PM
  4. jb13

    jb13 Well-Known Member

    Joined:
    Oct 24, 2017
    Messages:
    1,012
    Likes Received:
    45
  5. yilder1

    yilder1 Well-Known Member

    Joined:
    Aug 25, 2016
    Messages:
    1,010
    Likes Received:
    180
    muchas gracias amigo !!!!!!
     
  6. dgol22

    dgol22 Well-Known Member

    Joined:
    Sep 2, 2018
    Messages:
    276
    Likes Received:
    304
    Tengo unas copias, déjame ver qué puedo hacer.
     
  7. tegibu

    tegibu Well-Known Member

    Joined:
    Jan 9, 2018
    Messages:
    630
    Likes Received:
    411
  8. Torrero

    Torrero Member

    Joined:
    Jan 7, 2018
    Messages:
    218
    Likes Received:
    9
  9. moituananh

    moituananh Active Member

    Joined:
    Dec 11, 2015
    Messages:
    588
    Likes Received:
    63
  10. rus31

    rus31 Active Member

    Joined:
    May 20, 2016
    Messages:
    822
    Likes Received:
    33
  11. yanjamacaru

    yanjamacaru Well-Known Member

    Joined:
    Dec 21, 2018
    Messages:
    2,668
    Likes Received:
    94
    thanks
     
  12. wubaluba

    wubaluba New Member

    Joined:
    Feb 12, 2020
    Messages:
    19
    Likes Received:
    0
  13. Sheki

    Sheki Active Member

    Joined:
    Oct 5, 2015
    Messages:
    838
    Likes Received:
    39
  14. Dancer86

    Dancer86 Member

    Joined:
    Mar 22, 2014
    Messages:
    39
    Likes Received:
    4
  15. darkmagicar5

    darkmagicar5 Active Member

    Joined:
    Oct 8, 2019
    Messages:
    401
    Likes Received:
    126
    gran calidad gracias
     
  16. Leonardo7777777

    Leonardo7777777 Active Member

    Joined:
    Jan 3, 2016
    Messages:
    647
    Likes Received:
    31
    Thanks
     
  17. sebamax

    sebamax Active Member

    Joined:
    Aug 28, 2016
    Messages:
    1,533
    Likes Received:
    19
  18. joe007

    joe007 Well-Known Member

    Joined:
    Apr 5, 2017
    Messages:
    1,071
    Likes Received:
    48
  19. Dancer86

    Dancer86 Member

    Joined:
    Mar 22, 2014
    Messages:
    39
    Likes Received:
    4