No Doubt - Just A Girl (MTVPulse-1080i-DD2.0)-Olgold

Discussion in 'MTV PULSE HD' started by Olgold, Aug 27, 2015.

  1. Olgold

    Olgold Well-Known Member Capper

    Joined:
    Aug 19, 2015
    Messages:
    436
    Likes Received:
    1,653
    [​IMG]
    General
    Format : MPEG-TS
    File size : 242 MiB
    Duration : 3mn 23s
    Overall bit rate mode : Variable
    Overall bit rate : 9 971 Kbps

    Video
    Format : AVC
    Format/Info : Advanced Video Codec
    Format profile : [email protected]
    Format settings, CABAC : Yes
    Format settings, ReFrames : 4 frames
    Duration : 3mn 23s
    Bit rate : 9 220 Kbps
    Width : 1 920 pixels
    Height : 1 080 pixels
    Display aspect ratio : 16:9
    Frame rate : 25.000 fps
    Standard : Component
    Color space : YUV
    Chroma subsampling : 4:2:0
    Bit depth : 8 bits
    Scan type : MBAFF
    Scan order : Top Field First
    Bits/(Pixel*Frame) : 0.178
    Stream size : 224 MiB (93%)
    Color range : Limited

    Audio
    Format : AC-3
    Format/Info : Audio Coding 3
    Mode extension : CM (complete main)
    Format settings, Endianness : Big
    Duration : 3mn 23s
    Bit rate mode : Constant
    Bit rate : 256 Kbps
    Channel(s) : 2 channels
    Channel positions : Front: L R
    Sampling rate : 48.0 KHz
    Compression mode : Lossy
    Delay relative to video : 152ms
    Stream size : 6.22 MiB (3%)
    Language : French

    Hidden Content:
    You must reply before you can see the hidden data contained here.
     
    rhea, 777josem and CELOBRAZiL like this.
  2. Loading...


  3. rhea

    rhea Well-Known Member

    Joined:
    Jan 6, 2014
    Messages:
    6,237
    Likes Received:
    524
    thank you so much :)
     
  4. Zatimi

    Zatimi Active Member

    Joined:
    Aug 27, 2014
    Messages:
    703
    Likes Received:
    118
    thanks so much
     
  5. Fabitos ND

    Fabitos ND Member

    Joined:
    Dec 20, 2014
    Messages:
    95
    Likes Received:
    7
    Thanks a lot for Gwen!!!!
     
  6. Crusha

    Crusha Well-Known Member Capper

    Joined:
    Oct 15, 2014
    Messages:
    2,350
    Likes Received:
    2,425
    thank you
     
  7. HDMjuzik

    HDMjuzik Member

    Joined:
    Feb 4, 2015
    Messages:
    59
    Likes Received:
    2
    thank you
     
  8. wwepan

    wwepan Member

    Joined:
    Oct 21, 2015
    Messages:
    34
    Likes Received:
    0
    Thank You
     
  9. Marcelo Garcia Junior

    Marcelo Garcia Junior Member

    Joined:
    Jun 3, 2015
    Messages:
    449
    Likes Received:
    9
    linda essa gwen
     
  10. sebasswift

    sebasswift Member

    Joined:
    Oct 26, 2015
    Messages:
    117
    Likes Received:
    4
    what you waithing for?
     
  11. Flaxdevil

    Flaxdevil Member

    Joined:
    May 25, 2014
    Messages:
    210
    Likes Received:
    8
    no doubt!
     
  12. J_Pablo

    J_Pablo Active Member

    Joined:
    Nov 27, 2013
    Messages:
    502
    Likes Received:
    103
    Thank you for the video,
     
  13. Snorom6

    Snorom6 Well-Known Member Uploader

    Joined:
    Dec 17, 2015
    Messages:
    4,242
    Likes Received:
    4,643
  14. Pavulon

    Pavulon Well-Known Member

    Joined:
    Mar 22, 2016
    Messages:
    2,363
    Likes Received:
    198
    thanks
     
  15. tapions

    tapions Active Member

    Joined:
    Aug 30, 2016
    Messages:
    873
    Likes Received:
    65
    gracias
     
  16. jms_salta

    jms_salta Member

    Joined:
    Nov 9, 2014
    Messages:
    33
    Likes Received:
    0
    thank you so much :)