No Doubt - Hey Baby (2001)(Music Video) 1080p LPCM

Discussion in 'Music Videos' started by miguelmr87, Dec 2, 2019.

  1. miguelmr87

    miguelmr87 Well-Known Member

    Joined:
    Dec 20, 2013
    Messages:
    2,847
    Likes Received:
    783
    [​IMG]
    MY BOOK\HD\Music Videos HD\No Doubt - Hey Baby (2001)(Music Video) 1080pLPCM.ts
    Format : MPEG-TS
    File size : 137 MiB
    Duration : 3 min 27 s
    Overall bit rate mode : Variable
    Overall bit rate : 5 527 kb/s
    Maximum Overall bit rate : 35.5 Mb/s
    Video
    ID : 4113 (0x1011)
    Menu ID : 1 (0x1)
    Format : AVC
    Format/Info : Advanced Video Codec
    Format profile : High@L4
    Format settings : CABAC / 3 Ref Frames
    Format settings, CABAC : Yes
    Format settings, Reference frames : 3 frames
    Codec ID : 27
    Duration : 3 min 27 s
    Bit rate mode : Variable
    Bit rate : 3 702 kb/s
    Maximum bit rate : 40.0 Mb/s
    Width : 1 920 pixels
    Height : 1 080 pixels
    Display aspect ratio : 16:9
    Frame rate : 23.976 (24000/1001) FPS
    Color space : YUV
    Chroma subsampling : 4:2:0
    Bit depth : 8 bits
    Scan type : Progressive
    Bits/(Pixel*Frame) : 0.074
    Stream size : 91.6 MiB (67%)
    Color range : Limited
    Color primaries : BT.709
    Transfer characteristics : BT.709
    Matrix coefficients : BT.709
    Audio
    ID : 4352 (0x1100)
    Menu ID : 1 (0x1)
    Format : PCM
    Format settings : Big / Signed
    Muxing mode : Blu-ray
    Codec ID : 128
    Duration : 3 min 26 s
    Bit rate mode : Constant
    Bit rate : 1 536 kb/s
    Channel(s) : 2 channels
    Channel layout : L R
    Sampling rate : 48.0 kHz
    Bit depth : 16 bits
    Delay relative to video : 50 ms
    Stream size : 37.8 MiB (28%)
    mediafire
    Hidden Content:
    You must reply before you can see the hidden data contained here.
     
    lyana94, musicmen and eks22 like this.
  2. Loading...


  3. theclimb

    theclimb Well-Known Member

    Joined:
    Dec 16, 2014
    Messages:
    1,712
    Likes Received:
    379
    Thanks
     
  4. musicmen

    musicmen Active Member

    Joined:
    May 16, 2019
    Messages:
    563
    Likes Received:
    85
    thanks you so much baby.:love::p
     
  5. Tiago

    Tiago Well-Known Member

    Joined:
    Dec 7, 2013
    Messages:
    3,290
    Likes Received:
    191
    thanks
     
  6. Clannadan

    Clannadan Active Member

    Joined:
    Jun 17, 2016
    Messages:
    228
    Likes Received:
    44
    thanks
     
  7. loevibes

    loevibes Active Member

    Joined:
    Apr 7, 2016
    Messages:
    441
    Likes Received:
    30
    thanks!
     
  8. Aldebaran0001

    Aldebaran0001 Member

    Joined:
    Nov 29, 2019
    Messages:
    628
    Likes Received:
    9
  9. Basilio S Rocha

    Basilio S Rocha Member

    Joined:
    Mar 24, 2019
    Messages:
    371
    Likes Received:
    3
  10. ricards51

    ricards51 Well-Known Member

    Joined:
    Oct 10, 2016
    Messages:
    2,314
    Likes Received:
    65
    very special
     
  11. ethan03

    ethan03 Active Member

    Joined:
    Dec 9, 2016
    Messages:
    386
    Likes Received:
    36
    Thanks
     
  12. kendoh

    kendoh Member

    Joined:
    Jun 28, 2016
    Messages:
    550
    Likes Received:
    19
    Nice one!
     
  13. Vinny

    Vinny Well-Known Member

    Joined:
    Dec 26, 2013
    Messages:
    4,674
    Likes Received:
    72
    Thanks
     
  14. Fabitos ND

    Fabitos ND Member

    Joined:
    Dec 20, 2014
    Messages:
    166
    Likes Received:
    12
    Thanks a bunch! <3
     
  15. ecrider1000

    ecrider1000 Active Member

    Joined:
    Jun 25, 2016
    Messages:
    781
    Likes Received:
    43
  16. kikidide

    kikidide Member

    Joined:
    Oct 27, 2019
    Messages:
    71
    Likes Received:
    6
    thank you!
     
  17. mat2103

    mat2103 Well-Known Member

    Joined:
    Dec 6, 2016
    Messages:
    1,484
    Likes Received:
    89
    Thank you ^_^
     
  18. ata2190

    ata2190 Member

    Joined:
    Oct 20, 2018
    Messages:
    80
    Likes Received:
    12
    thanks a lot
     
  19. pitolicie

    pitolicie Member

    Joined:
    Apr 4, 2019
    Messages:
    293
    Likes Received:
    7
  20. tn5656

    tn5656 Well-Known Member

    Joined:
    Jan 20, 2017
    Messages:
    7,922
    Likes Received:
    504
    Thank you !!!
     
  21. botulismo

    botulismo Member

    Joined:
    Aug 18, 2017
    Messages:
    49
    Likes Received:
    0
    Thanks a bunch!