Nirvana - Smells Like Teen Spirit (MTVPulse-1080i-DD2.0)-Olgold

Discussion in 'MTV PULSE HD' started by Olgold, Aug 27, 2015.

  1. Olgold

    Olgold Well-Known Member Capper

    Joined:
    Aug 19, 2015
    Messages:
    436
    Likes Received:
    1,797
    [​IMG]
    General
    Format : MPEG-TS
    File size : 263 MiB
    Duration : 4mn 35s
    Overall bit rate mode : Variable
    Overall bit rate : 8 015 Kbps

    Video
    Format : AVC
    Format/Info : Advanced Video Codec
    Format profile : High@L4
    Format settings, CABAC : Yes
    Format settings, ReFrames : 4 frames
    Duration : 4mn 35s
    Bit rate : 7 360 Kbps
    Width : 1 920 pixels
    Height : 1 080 pixels
    Display aspect ratio : 16:9
    Frame rate : 25.000 fps
    Standard : Component
    Color space : YUV
    Chroma subsampling : 4:2:0
    Bit depth : 8 bits
    Scan type : MBAFF
    Scan order : Top Field First
    Bits/(Pixel*Frame) : 0.142
    Stream size : 241 MiB (92%)
    Color range : Limited

    Audio
    Format : AC-3
    Format/Info : Audio Coding 3
    Mode extension : CM (complete main)
    Format settings, Endianness : Big
    Duration : 4mn 35s
    Bit rate mode : Constant
    Bit rate : 256 Kbps
    Channel(s) : 2 channels
    Channel positions : Front: L R
    Sampling rate : 48.0 KHz
    Compression mode : Lossy
    Delay relative to video : 72ms
    Stream size : 8.40 MiB (3%)
    Language : French

    Hidden Content:
    You must reply before you can see the hidden data contained here.
     
    snake1, rvden, 777josem and 2 others like this.
  2. lpplus

    lpplus LP & MET Fan

    Joined:
    Sep 28, 2014
    Messages:
    855
    Likes Received:
    3,719
    thank you
     
  3. 777josem

    777josem ProRes 1080p LPCM

    Joined:
    Sep 1, 2014
    Messages:
    3,785
    Likes Received:
    3,515
    :DThank you so much!
     
  4. rhea

    rhea Well-Known Member

    Joined:
    Jan 6, 2014
    Messages:
    8,081
    Likes Received:
    1,112
    thank you so much
     
  5. furkan

    furkan Member

    Joined:
    Oct 9, 2015
    Messages:
    414
    Likes Received:
    17
    thnks oyuuuu
     
  6. MaggieS

    MaggieS Well-Known Member

    Joined:
    Sep 19, 2014
    Messages:
    1,119
    Likes Received:
    57
    TNX U
     
  7. janito33

    janito33 Member

    Joined:
    Dec 10, 2014
    Messages:
    209
    Likes Received:
    3
    estupendo video, clásico gracias
     
  8. Dreamer

    Dreamer Lana Del Rey ♥ Halsey ♥ Iggy Azalea Capper V . I . P. Uploader

    Joined:
    Dec 4, 2014
    Messages:
    3,043
    Likes Received:
    6,037
    Thank you
     
  9. Attention

    Attention Active Member

    Joined:
    Nov 30, 2013
    Messages:
    562
    Likes Received:
    36
  10. Flaxdevil

    Flaxdevil Member

    Joined:
    May 25, 2014
    Messages:
    285
    Likes Received:
    12
    Grunge!
     
  11. J_Pablo

    J_Pablo Active Member

    Joined:
    Nov 27, 2013
    Messages:
    597
    Likes Received:
    165
    Thank you so much!
     
  12. tsm897

    tsm897 Member

    Joined:
    Apr 16, 2014
    Messages:
    147
    Likes Received:
    5
    thank you
     
  13. Snorom6

    Snorom6 Well-Known Member V . I . P. Uploader

    Joined:
    Dec 17, 2015
    Messages:
    4,248
    Likes Received:
    5,948
  14. williamcaracas

    williamcaracas Member

    Joined:
    Nov 29, 2013
    Messages:
    186
    Likes Received:
    2
  15. Zeeh

    Zeeh Rallyforrivers.org

    Joined:
    Mar 20, 2015
    Messages:
    754
    Likes Received:
    30
    thanks
     
  16. slash

    slash Member

    Joined:
    Mar 17, 2016
    Messages:
    63
    Likes Received:
    2
    thanks
     
  17. cero

    cero Member

    Joined:
    Nov 1, 2013
    Messages:
    150
    Likes Received:
    3
    cooooool song
     
  18. Albano Salinas

    Albano Salinas Well-Known Member

    Joined:
    Nov 6, 2014
    Messages:
    506
    Likes Received:
    1,287
    thanks so much!--
     
  19. tapions

    tapions Well-Known Member

    Joined:
    Aug 30, 2016
    Messages:
    1,022
    Likes Received:
    90
    gracias
     
  20. danicoteca

    danicoteca Member

    Joined:
    Sep 10, 2016
    Messages:
    183
    Likes Received:
    17