Nirvana - Smells Like Teen Spirit (MTVPulse-1080i-DD2.0)-Olgold

Discussion in 'MTV PULSE HD' started by Olgold, Aug 27, 2015.

  1. Olgold

    Olgold Well-Known Member Capper

    Joined:
    Aug 19, 2015
    Messages:
    436
    Likes Received:
    1,666
    [​IMG]
    General
    Format : MPEG-TS
    File size : 263 MiB
    Duration : 4mn 35s
    Overall bit rate mode : Variable
    Overall bit rate : 8 015 Kbps

    Video
    Format : AVC
    Format/Info : Advanced Video Codec
    Format profile : [email protected]
    Format settings, CABAC : Yes
    Format settings, ReFrames : 4 frames
    Duration : 4mn 35s
    Bit rate : 7 360 Kbps
    Width : 1 920 pixels
    Height : 1 080 pixels
    Display aspect ratio : 16:9
    Frame rate : 25.000 fps
    Standard : Component
    Color space : YUV
    Chroma subsampling : 4:2:0
    Bit depth : 8 bits
    Scan type : MBAFF
    Scan order : Top Field First
    Bits/(Pixel*Frame) : 0.142
    Stream size : 241 MiB (92%)
    Color range : Limited

    Audio
    Format : AC-3
    Format/Info : Audio Coding 3
    Mode extension : CM (complete main)
    Format settings, Endianness : Big
    Duration : 4mn 35s
    Bit rate mode : Constant
    Bit rate : 256 Kbps
    Channel(s) : 2 channels
    Channel positions : Front: L R
    Sampling rate : 48.0 KHz
    Compression mode : Lossy
    Delay relative to video : 72ms
    Stream size : 8.40 MiB (3%)
    Language : French

    Hidden Content:
    You must reply before you can see the hidden data contained here.
     
    rvden, 777josem, lpplus and 1 other person like this.
  2. lpplus

    lpplus LP & MET Fan

    Joined:
    Sep 28, 2014
    Messages:
    796
    Likes Received:
    2,846
    thank you
     
  3. 777josem

    777josem ProRes 1080p LPCM V . I . P. Uploader

    Joined:
    Sep 1, 2014
    Messages:
    3,509
    Likes Received:
    2,666
    :DThank you so much!
     
  4. rhea

    rhea Well-Known Member

    Joined:
    Jan 6, 2014
    Messages:
    6,411
    Likes Received:
    607
    thank you so much
     
  5. furkan

    furkan Member

    Joined:
    Oct 9, 2015
    Messages:
    248
    Likes Received:
    7
    thnks oyuuuu
     
  6. MaggieS

    MaggieS Well-Known Member

    Joined:
    Sep 19, 2014
    Messages:
    1,016
    Likes Received:
    46
    TNX U
     
  7. janito33

    janito33 Member

    Joined:
    Dec 10, 2014
    Messages:
    158
    Likes Received:
    1
    estupendo video, clásico gracias
     
  8. Dreamer

    Dreamer Lana Del Rey ♥ Halsey Capper V . I . P. Uploader

    Joined:
    Dec 4, 2014
    Messages:
    2,759
    Likes Received:
    3,709
    Thank you
     
  9. Attention

    Attention Active Member

    Joined:
    Nov 30, 2013
    Messages:
    563
    Likes Received:
    30
  10. Flaxdevil

    Flaxdevil Member

    Joined:
    May 25, 2014
    Messages:
    285
    Likes Received:
    8
    Grunge!
     
  11. J_Pablo

    J_Pablo Active Member

    Joined:
    Nov 27, 2013
    Messages:
    514
    Likes Received:
    106
    Thank you so much!
     
  12. tsm897

    tsm897 Member

    Joined:
    Apr 16, 2014
    Messages:
    136
    Likes Received:
    4
    thank you
     
  13. Snorom6

    Snorom6 Well-Known Member V . I . P. Uploader

    Joined:
    Dec 17, 2015
    Messages:
    4,242
    Likes Received:
    4,777
  14. williamcaracas

    williamcaracas Member

    Joined:
    Nov 29, 2013
    Messages:
    164
    Likes Received:
    2
  15. Zeeh

    Zeeh Member

    Joined:
    Mar 20, 2015
    Messages:
    628
    Likes Received:
    14
    thanks
     
  16. slash

    slash Member

    Joined:
    Mar 17, 2016
    Messages:
    63
    Likes Received:
    1
    thanks
     
  17. cero

    cero Member

    Joined:
    Nov 1, 2013
    Messages:
    125
    Likes Received:
    1
    cooooool song
     
  18. Albano Salinas

    Albano Salinas Well-Known Member

    Joined:
    Nov 6, 2014
    Messages:
    470
    Likes Received:
    1,008
    thanks so much!--
     
  19. tapions

    tapions Active Member

    Joined:
    Aug 30, 2016
    Messages:
    882
    Likes Received:
    66
    gracias
     
  20. danicoteca

    danicoteca Member

    Joined:
    Sep 10, 2016
    Messages:
    161
    Likes Received:
    17