Nirvana - Smells Like Teen Spirit (MTVPulse-1080i-DD2.0)-Olgold

Discussion in 'MTV PULSE HD' started by Olgold, Aug 27, 2015.

  1. Olgold

    Olgold Well-Known Member Capper

    Joined:
    Aug 19, 2015
    Messages:
    386
    Likes Received:
    1,303
    [​IMG]
    General
    Format : MPEG-TS
    File size : 263 MiB
    Duration : 4mn 35s
    Overall bit rate mode : Variable
    Overall bit rate : 8 015 Kbps

    Video
    Format : AVC
    Format/Info : Advanced Video Codec
    Format profile : [email protected]
    Format settings, CABAC : Yes
    Format settings, ReFrames : 4 frames
    Duration : 4mn 35s
    Bit rate : 7 360 Kbps
    Width : 1 920 pixels
    Height : 1 080 pixels
    Display aspect ratio : 16:9
    Frame rate : 25.000 fps
    Standard : Component
    Color space : YUV
    Chroma subsampling : 4:2:0
    Bit depth : 8 bits
    Scan type : MBAFF
    Scan order : Top Field First
    Bits/(Pixel*Frame) : 0.142
    Stream size : 241 MiB (92%)
    Color range : Limited

    Audio
    Format : AC-3
    Format/Info : Audio Coding 3
    Mode extension : CM (complete main)
    Format settings, Endianness : Big
    Duration : 4mn 35s
    Bit rate mode : Constant
    Bit rate : 256 Kbps
    Channel(s) : 2 channels
    Channel positions : Front: L R
    Sampling rate : 48.0 KHz
    Compression mode : Lossy
    Delay relative to video : 72ms
    Stream size : 8.40 MiB (3%)
    Language : French

    Hidden Content:
    You must reply before you can see the hidden data contained here.
     
    777josem, lpplus and CELOBRAZiL like this.
  2. lpplus

    lpplus Well-Known Member

    Joined:
    Sep 28, 2014
    Messages:
    423
    Likes Received:
    560
    thank you
     
  3. 777josem

    777josem Well-Known Member Uploader

    Joined:
    Sep 1, 2014
    Messages:
    2,341
    Likes Received:
    1,252
    :DThank you so much!
     
  4. rhea

    rhea Well-Known Member

    Joined:
    Jan 6, 2014
    Messages:
    5,193
    Likes Received:
    250
    thank you so much
     
  5. furkan

    furkan Member

    Joined:
    Oct 9, 2015
    Messages:
    194
    Likes Received:
    3
    thnks oyuuuu
     
  6. MaggieS

    MaggieS Active Member

    Joined:
    Sep 19, 2014
    Messages:
    922
    Likes Received:
    33
    TNX U
     
  7. janito33

    janito33 Member

    Joined:
    Dec 10, 2014
    Messages:
    134
    Likes Received:
    1
    estupendo video, clásico gracias
     
  8. Dreamer

    Dreamer ♫ It's Britney Bitch ♫ Capper Uploader

    Joined:
    Dec 4, 2014
    Messages:
    2,136
    Likes Received:
    1,801
    Thank you
     
  9. Attention

    Attention Active Member

    Joined:
    Nov 30, 2013
    Messages:
    564
    Likes Received:
    29
  10. Flaxdevil

    Flaxdevil Member

    Joined:
    May 25, 2014
    Messages:
    205
    Likes Received:
    6
    Grunge!
     
  11. J_Pablo

    J_Pablo Active Member

    Joined:
    Nov 27, 2013
    Messages:
    417
    Likes Received:
    56
    Thank you so much!
     
  12. tsm897

    tsm897 Member

    Joined:
    Apr 16, 2014
    Messages:
    129
    Likes Received:
    3
    thank you
     
  13. Snorom6

    Snorom6 Well-Known Member Uploader

    Joined:
    Dec 17, 2015
    Messages:
    4,246
    Likes Received:
    3,265
  14. williamcaracas

    williamcaracas Member

    Joined:
    Nov 29, 2013
    Messages:
    147
    Likes Received:
    1
  15. Zeeh

    Zeeh Member

    Joined:
    Mar 20, 2015
    Messages:
    327
    Likes Received:
    4
    thanks
     
  16. slash

    slash Member

    Joined:
    Mar 17, 2016
    Messages:
    63
    Likes Received:
    1
    thanks
     
  17. cero

    cero Member

    Joined:
    Nov 1, 2013
    Messages:
    82
    Likes Received:
    0
    cooooool song
     
  18. Albano Salinas

    Albano Salinas Well-Known Member

    Joined:
    Nov 6, 2014
    Messages:
    445
    Likes Received:
    751
    thanks so much!--
     
  19. tapions

    tapions Active Member

    Joined:
    Aug 30, 2016
    Messages:
    749
    Likes Received:
    47
    gracias
     
  20. danicoteca

    danicoteca Member

    Joined:
    Sep 10, 2016
    Messages:
    159
    Likes Received:
    17