Nine Muses - Gun (Mnet Japan HD)

Discussion in 'MNET' started by DETOX, Apr 27, 2014.

  1. DETOX

    DETOX K-POP fan ♡ V . I . P. Uploader

    Joined:
    Feb 20, 2014
    Messages:
    3,000
    Likes Received:
    20,190
    [​IMG]

    General
    ID : 16 (0x10)
    Complete name : Gun (Mnet Japan HD).ts
    Format : MPEG-TS
    File size : 152 MiB
    Duration : 3mn 23s
    Overall bit rate mode : Variable
    Overall bit rate : 6 280 Kbps

    Video
    ID : 4100 (0x1004)
    Menu ID : 129 (0x81)
    Format : AVC
    Format/Info : Advanced Video Codec
    Format profile : [email protected]
    Format settings, CABAC : Yes
    Format settings, ReFrames : 4 frames
    Codec ID : 27
    Duration : 3mn 22s
    Bit rate mode : Variable
    Bit rate : 5 825 Kbps
    Maximum bit rate : 20.0 Mbps
    Width : 1 440 pixels
    Height : 1 080 pixels
    Display aspect ratio : 16:9
    Frame rate : 29.970 fps
    Standard : Component
    Color space : YUV
    Chroma subsampling : 4:2:0
    Bit depth : 8 bits
    Scan type : Interlaced
    Scan order : Top Field First
    Bits/(Pixel*Frame) : 0.125
    Stream size : 141 MiB (93%)
    Color primaries : BT.709
    Transfer characteristics : BT.709
    Matrix coefficients : BT.709

    Audio
    ID : 4164 (0x1044)
    Menu ID : 129 (0x81)
    Format : AAC
    Format/Info : Advanced Audio Codec
    Format version : Version 2
    Format profile : LC
    Muxing mode : ADTS
    Codec ID : 15
    Duration : 3mn 22s
    Bit rate mode : Variable
    Bit rate : 144 Kbps
    Channel(s) : 2 channels
    Channel positions : Front: L R
    Sampling rate : 48.0 KHz
    Compression mode : Lossy
    Delay relative to video : 15ms
    Stream size : 3.48 MiB (2%)


    DOWNLOAD:

    MEGA

    Hidden Content:
    You must reply before you can see the hidden data contained here.
    Password: DETOX
     
    rhea likes this.
  2. Loading...

    Similar Threads
    1. DETOX
      Replies:
      5
      Views:
      601

  3. rhea

    rhea Well-Known Member

    Joined:
    Jan 6, 2014
    Messages:
    6,230
    Likes Received:
    524
    thanks
     
  4. getteg

    getteg Active Member

    Joined:
    Sep 24, 2014
    Messages:
    537
    Likes Received:
    30
  5. abcde54321

    abcde54321 Member

    Joined:
    Apr 6, 2014
    Messages:
    776
    Likes Received:
    20
  6. Kenny Sun

    Kenny Sun Member

    Joined:
    Oct 8, 2013
    Messages:
    184
    Likes Received:
    19
    thank you