Nine Muses - Glue (Mnet Japan HD)

Discussion in 'MNET' started by DETOX, Apr 27, 2014.

  1. DETOX

    DETOX Well-Known Member V . I . P. Uploader

    Joined:
    Feb 20, 2014
    Messages:
    2,586
    Likes Received:
    12,128
    [​IMG]

    General
    ID : 16400 (0x4010)
    Complete name : Glue (Mnet Japan HD).ts
    Format : MPEG-TS
    File size : 196 MiB
    Duration : 3mn 14s
    Start time : UTC 2014-01-23 12:50:05
    End time : UTC 2014-01-23 12:53:20
    Overall bit rate mode : Variable
    Overall bit rate : 8 426 Kbps
    Network name : |¹«Ñù!
    Original network name : Astra 8

    Video
    ID : 4100 (0x1004)
    Menu ID : 33426 (0x8292)
    Format : AVC
    Format/Info : Advanced Video Codec
    Format profile : [email protected]
    Format settings, CABAC : Yes
    Format settings, ReFrames : 4 frames
    Codec ID : 27
    Duration : 3mn 14s
    Bit rate mode : Variable
    Bit rate : 7 864 Kbps
    Maximum bit rate : 20.0 Mbps
    Width : 1 440 pixels
    Height : 1 080 pixels
    Display aspect ratio : 16:9
    Frame rate : 29.970 fps
    Standard : Component
    Color space : YUV
    Chroma subsampling : 4:2:0
    Bit depth : 8 bits
    Scan type : Interlaced
    Scan order : Top Field First
    Bits/(Pixel*Frame) : 0.169
    Stream size : 182 MiB (93%)
    Color primaries : BT.709
    Transfer characteristics : BT.709
    Matrix coefficients : BT.709

    Audio
    ID : 4164 (0x1044)
    Menu ID : 33426 (0x8292)
    Format : AAC
    Format/Info : Advanced Audio Codec
    Format version : Version 2
    Format profile : LC
    Muxing mode : ADTS
    Codec ID : 15
    Duration : 3mn 14s
    Bit rate mode : Variable
    Bit rate : 144 Kbps
    Channel(s) : 2 channels
    Channel positions : Front: L R
    Sampling rate : 48.0 KHz
    Compression mode : Lossy
    Delay relative to video : -114ms
    Stream size : 3.34 MiB (2%)

    Menu
    ID : 1028 (0x404)
    Menu ID : 33426 (0x8292)
    Duration : 3mn 14s
    List : 4100 (0x1004) (AVC) / 4164 (0x1044) (AAC)
    Service name : Mnet!!HD
    Service type : digital television


    DOWNLOAD:

    MEGA

    Hidden Content:
    You must reply before you can see the hidden data contained here.
    Password: DETOX
     
    rhea likes this.
  2. Loading...

    Similar Threads
    1. DETOX
      Replies:
      4
      Views:
      403

  3. rhea

    rhea Well-Known Member

    Joined:
    Jan 6, 2014
    Messages:
    5,193
    Likes Received:
    250
    thanks
     
  4. Cesar

    Cesar Member

    Joined:
    Nov 11, 2013
    Messages:
    384
    Likes Received:
    10
    thanks
     
  5. getteg

    getteg Active Member

    Joined:
    Sep 24, 2014
    Messages:
    520
    Likes Received:
    29
  6. gstnedgrdrch93

    gstnedgrdrch93 Member

    Joined:
    Oct 12, 2014
    Messages:
    46
    Likes Received:
    1
     
  7. Kenny Sun

    Kenny Sun Member

    Joined:
    Oct 8, 2013
    Messages:
    130
    Likes Received:
    18
    thank you