Nightwish - Élan (1080p-FLAC-VINNY)

Discussion in 'Music Videos' started by Darkwave, Jul 13, 2020.

  1. Darkwave

    Darkwave VINNY

    Joined:
    Feb 5, 2018
    Messages:
    106
    Likes Received:
    10
    [​IMG]

    Code:
    Format                      : Matroska
    Format version              : Version 4
    File size                   : 129 MiB
    Duration                    : 4 min 32 s
    Overall bit rate mode       : Variable
    Overall bit rate            : 3 975 kb/s
    Movie name                  : Nightwish - Élan
    Encoded date                : UTC 2020-07-13 13:43:28
    Writing application         : mkvmerge v48.0.0 ('Fortress Around Your Heart') 32-bit
    Writing library             : libebml v1.4.0 + libmatroska v1.6.0
    
    Video
    ID                          : 1
    Format                      : AVC
    Format/Info                 : Advanced Video Codec
    Format profile              : High@L4
    Format settings             : CABAC / 3 Ref Frames
    Format settings, CABAC      : Yes
    Format settings, Reference  : 3 frames
    Codec ID                    : V_MPEG4/ISO/AVC
    Duration                    : 4 min 32 s
    Bit rate                    : 2 366 kb/s
    Width                       : 1 920 pixels
    Height                      : 1 080 pixels
    Display aspect ratio        : 16:9
    Frame rate mode             : Constant
    Frame rate                  : 25.000 FPS
    Color space                 : YUV
    Chroma subsampling          : 4:2:0
    Bit depth                   : 8 bits
    Scan type                   : Progressive
    Bits/(Pixel*Frame)          : 0.046
    Stream size                 : 76.9 MiB (60%)
    Title                       : AVC 1920x1080 25fps 2366Kbps
    Language                    : English
    Default                     : No
    Forced                      : No
    
    Audio
    ID                          : 2
    Format                      : FLAC
    Format/Info                 : Free Lossless Audio Codec
    Codec ID                    : A_FLAC
    Duration                    : 4 min 32 s
    Bit rate mode               : Variable
    Bit rate                    : 1 608 kb/s
    Channel(s)                  : 2 channels
    Channel layout              : L R
    Sampling rate               : 44.1 kHz
    Frame rate                  : 9.573 FPS (4607 SPF)
    Bit depth                   : 24 bits
    Compression mode            : Lossless
    Stream size                 : 52.2 MiB (40%)
    Title                       : FLAC
    Writing library             : libFLAC 1.2.1 (UTC 2007-09-17)
    Default                     : Yes
    Forced                      : No
    Hidden Content:
    You must reply before you can see the hidden data contained here.
     
  2. Loading...