Nicki Minaj - Va Va Voom (1080i Palladia) -Brian

Discussion in 'PALLADIA' started by Crusha, Mar 26, 2016.

  1. Crusha

    Crusha Well-Known Member Capper V . I . P.

    Joined:
    Oct 15, 2014
    Messages:
    2,359
    Likes Received:
    2,860
    [​IMG] [​IMG] [​IMG] [​IMG] [​IMG]

    Mediainfo

    General
    ID : 1 (0x1)
    Complete name : Nicki Minaj - Va Va Voom (1080i Palladia) -Brian.ts
    Format : MPEG-TS
    File size : 413 MiB
    Duration : 3mn 5s
    Overall bit rate mode : Variable
    Overall bit rate : 18.7 Mbps
    Law rating : TV-PG

    Video
    ID : 578 (0x242)
    Menu ID : 1 (0x1)
    Format : MPEG Video
    Format version : Version 2
    Format profile : Main@High
    Format settings, BVOP : Yes
    Format settings, Matrix : Custom
    Format settings, GOP : M=3, N=15
    Format settings, picture struc : Frame
    Codec ID : 2
    Duration : 3mn 4s
    Bit rate mode : Variable
    Bit rate : 17.4 Mbps
    Maximum bit rate : 38.8 Mbps
    Width : 1 920 pixels
    Height : 1 080 pixels
    Display aspect ratio : 16:9
    Frame rate : 29.970 fps
    Color space : YUV
    Chroma subsampling : 4:2:0
    Bit depth : 8 bits
    Scan type : Interlaced
    Scan order : Top Field First
    Compression mode : Lossy
    Bits/(Pixel*Frame) : 0.280
    Time code of first frame : 00:00:00;00
    Time code source : Group of pictures header
    GOP, Open/Closed : Open
    GOP, Open/Closed of first fram : Closed
    Stream size : 383 MiB (93%)

    Audio
    ID : 576 (0x240)
    Menu ID : 1 (0x1)
    Format : AC-3
    Format/Info : Audio Coding 3
    Mode extension : CM (complete main)
    Format settings, Endianness : Big
    Codec ID : 129
    Duration : 3mn 4s
    Bit rate mode : Constant
    Bit rate : 384 Kbps
    Channel(s) : 2 channels
    Channel positions : Front: L R
    Sampling rate : 48.0 KHz
    Compression mode : Lossy
    Delay relative to video : 14ms
    Stream size : 8.46 MiB (2%)
    Language : English

    Text #1
    ID : 578 (0x242)-CC1
    Menu ID : 1 (0x1)
    Format : EIA-608
    Muxing mode : A/53 / DTVCC Transport
    Muxing mode, more info : Muxed in Video #1
    Duration : 3mn 4s
    Bit rate mode : Constant
    Stream size : 0.00 Byte (0%)

    Text #2
    ID : 578 (0x242)-CC3
    Menu ID : 1 (0x1)
    Format : EIA-608
    Muxing mode : A/53 / DTVCC Transport
    Muxing mode, more info : Muxed in Video #1
    Duration : 3mn 4s
    Bit rate mode : Constant
    Stream size : 0.00 Byte (0%)

    Text #3
    ID : 578 (0x242)-1
    Menu ID : 1 (0x1)
    Format : EIA-708
    Muxing mode : A/53 / DTVCC Transport
    Muxing mode, more info : Muxed in Video #1
    Duration : 3mn 4s
    Bit rate mode : Constant
    Stream size : 0.00 Byte (0%)

    Text #4
    ID : 578 (0x242)-2
    Menu ID : 1 (0x1)
    Format : EIA-708
    Muxing mode : A/53 / DTVCC Transport
    Muxing mode, more info : Muxed in Video #1
    Duration : 3mn 4s
    Bit rate mode : Constant
    Stream size : 0.00 Byte (0%)
    Hidden Content:
    You must reply before you can see the hidden data contained here.
    Password: crusha
     
  2. Loading...


  3. nickiexclusive

    nickiexclusive Video Maniac V . I . P. Uploader

    Joined:
    Sep 23, 2014
    Messages:
    2,554
    Likes Received:
    12,174
    Thank you so much Crusha ❤️
     
    Crusha likes this.
  4. Dreamer

    Dreamer Lana Del Rey ♥ Halsey ♥ Iggy Azalea Capper V . I . P. Uploader

    Joined:
    Dec 4, 2014
    Messages:
    3,036
    Likes Received:
    5,752
    Thank you!
     
  5. rus31

    rus31 Member

    Joined:
    May 20, 2016
    Messages:
    472
    Likes Received:
    20
    thanks
     
  6. ivko02

    ivko02 Member

    Joined:
    Jun 20, 2016
    Messages:
    155
    Likes Received:
    2
    thanks
     
  7. tapions

    tapions Well-Known Member

    Joined:
    Aug 30, 2016
    Messages:
    1,013
    Likes Received:
    89
    gracias
     
  8. Tommyboy

    Tommyboy Active Member

    Joined:
    Oct 23, 2016
    Messages:
    906
    Likes Received:
    35
    Thanks
     
  9. Gabriel5000

    Gabriel5000 Member

    Joined:
    Dec 10, 2016
    Messages:
    84
    Likes Received:
    16
    thanks[​IMG] [​IMG] [​IMG] [​IMG] [​IMG]

    Mediainfo

    General
    ID : 1 (0x1)
    Complete name : Nicki Minaj - Va Va Voom (1080i Palladia) -Brian.ts
    Format : MPEG-TS
    File size : 413 MiB
    Duration : 3mn 5s
    Overall bit rate mode : Variable
    Overall bit rate : 18.7 Mbps
    Law rating : TV-PG

    Video
    ID : 578 (0x242)
    Menu ID : 1 (0x1)
    Format : MPEG Video
    Format version : Version 2
    Format profile : Main@High
    Format settings, BVOP : Yes
    Format settings, Matrix : Custom
    Format settings, GOP : M=3, N=15
    Format settings, picture struc : Frame
    Codec ID : 2
    Duration : 3mn 4s
    Bit rate mode : Variable
    Bit rate : 17.4 Mbps
    Maximum bit rate : 38.8 Mbps
    Width : 1 920 pixels
    Height : 1 080 pixels
    Display aspect ratio : 16:9
    Frame rate : 29.970 fps
    Color space : YUV
    Chroma subsampling : 4:2:0
    Bit depth : 8 bits
    Scan type : Interlaced
    Scan order : Top Field First
    Compression mode : Lossy
    Bits/(Pixel*Frame) : 0.280
    Time code of first frame : 00:00:00;00
    Time code source : Group of pictures header
    GOP, Open/Closed : Open
    GOP, Open/Closed of first fram : Closed
    Stream size : 383 MiB (93%)

    Audio
    ID : 576 (0x240)
    Menu ID : 1 (0x1)
    Format : AC-3
    Format/Info : Audio Coding 3
    Mode extension : CM (complete main)
    Format settings, Endianness : Big
    Codec ID : 129
    Duration : 3mn 4s
    Bit rate mode : Constant
    Bit rate : 384 Kbps
    Channel(s) : 2 channels
    Channel positions : Front: L R
    Sampling rate : 48.0 KHz
    Compression mode : Lossy
    Delay relative to video : 14ms
    Stream size : 8.46 MiB (2%)
    Language : English

    Text #1
    ID : 578 (0x242)-CC1
    Menu ID : 1 (0x1)
    Format : EIA-608
    Muxing mode : A/53 / DTVCC Transport
    Muxing mode, more info : Muxed in Video #1
    Duration : 3mn 4s
    Bit rate mode : Constant
    Stream size : 0.00 Byte (0%)

    Text #2
    ID : 578 (0x242)-CC3
    Menu ID : 1 (0x1)
    Format : EIA-608
    Muxing mode : A/53 / DTVCC Transport
    Muxing mode, more info : Muxed in Video #1
    Duration : 3mn 4s
    Bit rate mode : Constant
    Stream size : 0.00 Byte (0%)

    Text #3
    ID : 578 (0x242)-1
    Menu ID : 1 (0x1)
    Format : EIA-708
    Muxing mode : A/53 / DTVCC Transport
    Muxing mode, more info : Muxed in Video #1
    Duration : 3mn 4s
    Bit rate mode : Constant
    Stream size : 0.00 Byte (0%)

    Text #4
    ID : 578 (0x242)-2
    Menu ID : 1 (0x1)
    Format : EIA-708
    Muxing mode : A/53 / DTVCC Transport
    Muxing mode, more info : Muxed in Video #1
    Duration : 3mn 4s
    Bit rate mode : Constant
    Stream size : 0.00 Byte (0%)
    ***Hidden content cannot be quoted.***

    Password: crusha[/QUOTE]
     
    plover123 likes this.
  10. nickiminajthebest

    nickiminajthebest Nicki Minaj

    Joined:
    Aug 16, 2016
    Messages:
    192
    Likes Received:
    270
    thank u
     
  11. andrew007

    andrew007 Member

    Joined:
    Jan 18, 2017
    Messages:
    41
    Likes Received:
    0
    thanks.
     
  12. hanshermann

    hanshermann Well-Known Member Uploader

    Joined:
    Aug 24, 2016
    Messages:
    6,464
    Likes Received:
    9,976
    wahts taht
     
  13. lloydminaj

    lloydminaj PM for ProRes trade

    Joined:
    Jan 23, 2017
    Messages:
    404
    Likes Received:
    220
    Thank you
     
  14. Beytv

    Beytv New Member

    Joined:
    Jun 20, 2017
    Messages:
    13
    Likes Received:
    0
    Thsnks
     
  15. plover123

    plover123 Member

    Joined:
    May 1, 2017
    Messages:
    75
    Likes Received:
    4
    thanks
     
  16. dieguitoszac

    dieguitoszac Member

    Joined:
    Jan 25, 2018
    Messages:
    326
    Likes Received:
    7
  17. Minajfav

    Minajfav Member

    Joined:
    Jul 2, 2018
    Messages:
    82
    Likes Received:
    2
    Thanks
     
  18. Erickxxx

    Erickxxx Member

    Joined:
    Aug 9, 2017
    Messages:
    126
    Likes Received:
    1