Nicki Minaj - Superbass (BIS.HD.1080i.DD5.1).-Crusha

Discussion in 'BIS HD' started by Crusha, Sep 7, 2015.

  1. Crusha

    Crusha Well-Known Member Capper

    Joined:
    Oct 15, 2014
    Messages:
    2,350
    Likes Received:
    2,474
    [​IMG]

    Mediainfo:
    General
    ID : 1 (0x1)
    Complete name : Nicki Minaj - Superbass (BIS.HD.1080i.DD5.1).-Crusha.ts
    Format : MPEG-TS
    File size : 89.1 MiB
    Duration : 3mn 22s
    Overall bit rate mode : Variable
    Overall bit rate : 3 694 Kbps

    Video
    ID : 2027 (0x7EB)
    Menu ID : 802 (0x322)
    Format : AVC
    Format/Info : Advanced Video Codec
    Format profile : High[email protected]
    Format settings, CABAC : Yes
    Format settings, ReFrames : 4 frames
    Codec ID : 27
    Duration : 3mn 22s
    Bit rate : 3 124 Kbps
    Width : 1 920 pixels
    Height : 1 080 pixels
    Display aspect ratio : 16:9
    Frame rate : 29.970 fps
    Standard : Component
    Color space : YUV
    Chroma subsampling : 4:2:0
    Bit depth : 8 bits
    Scan type : MBAFF
    Scan order : Top Field First
    Bits/(Pixel*Frame) : 0.050
    Stream size : 75.3 MiB (85%)
    Color range : Limited
    Color primaries : BT.709
    Transfer characteristics : BT.709
    Matrix coefficients : BT.709

    Audio
    ID : 3027 (0xBD3)
    Menu ID : 802 (0x322)
    Format : AC-3
    Format/Info : Audio Coding 3
    Mode extension : CM (complete main)
    Format settings, Endianness : Big
    Codec ID : 6
    Duration : 3mn 22s
    Bit rate mode : Constant
    Bit rate : 384 Kbps
    Channel(s) : 6 channels
    Channel positions : Front: L C R, Side: L R, LFE
    Sampling rate : 48.0 KHz
    Bit depth : 16 bits
    Compression mode : Lossy
    Stream size : 9.26 MiB (10%)
    Language : English

    Password: crusha

    Cap By Me :)
     
  2. 江雨燃双鱼

    江雨燃双鱼 Active Member

    Joined:
    Apr 5, 2014
    Messages:
    613
    Likes Received:
    38
    thanks for video
     
  3. GHN

    GHN Member

    Joined:
    Oct 27, 2014
    Messages:
    477
    Likes Received:
    10
    thank you
     
  4. Pedro Correia

    Pedro Correia Active Member

    Joined:
    Apr 17, 2014
    Messages:
    925
    Likes Received:
    90
    thanks for video
     
  5. abdi

    abdi Hi, if you need something feel free to PM me :) V . I . P. Uploader

    Joined:
    Sep 23, 2014
    Messages:
    2,330
    Likes Received:
    9,443
    where is the link pls?
     
  6. Pedro Correia

    Pedro Correia Active Member

    Joined:
    Apr 17, 2014
    Messages:
    925
    Likes Received:
    90
    Where is the link pls?
     
  7. scooby108

    scooby108 Member

    Joined:
    Dec 20, 2016
    Messages:
    42
    Likes Received:
    0
    no link?
     
  8. Diego Spears

    Diego Spears Member

    Joined:
    Jan 22, 2017
    Messages:
    113
    Likes Received:
    5
    Thank you
     
  9. chello21

    chello21 Member

    Joined:
    Aug 5, 2017
    Messages:
    78
    Likes Received:
    0
    thnxs
     
  10. NiceBoy

    NiceBoy Member

    Joined:
    May 20, 2016
    Messages:
    232
    Likes Received:
    5
    Many Thanks
     
  11. NiceBoy

    NiceBoy Member

    Joined:
    May 20, 2016
    Messages:
    232
    Likes Received:
    5
    No Link ;)