Nicki Minaj - Starships (VH1HD-1080i-DD2.0-Crusha)

Discussion in 'VH1 HD' started by Crusha, Feb 16, 2016.

  1. Crusha

    Crusha Well-Known Member Capper V . I . P.

    Joined:
    Oct 15, 2014
    Messages:
    2,359
    Likes Received:
    2,947
    [​IMG]

    Mediainfo
    General
    ID : 1 (0x1)
    Complete name : Nicki Minaj - Starships (VH1.HD.1080i.DD2.0).-Crusha.ts
    Format : MPEG-TS
    File size : 125 MiB
    Duration : 4mn 8s
    Overall bit rate mode : Variable
    Overall bit rate : 4 205 Kbps

    Video
    ID : 2943 (0xB7F)
    Menu ID : 1515 (0x5EB)
    Format : AVC
    Format/Info : Advanced Video Codec
    Format profile : High@L4
    Format settings, CABAC : Yes
    Format settings, ReFrames : 4 frames
    Codec ID : 27
    Duration : 4mn 8s
    Bit rate : 3 610 Kbps
    Width : 1 920 pixels
    Height : 1 080 pixels
    Display aspect ratio : 16:9
    Frame rate : 29.970 fps
    Standard : Component
    Color space : YUV
    Chroma subsampling : 4:2:0
    Bit depth : 8 bits
    Scan type : MBAFF
    Scan order : Top Field First
    Bits/(Pixel*Frame) : 0.058
    Stream size : 107 MiB (86%)
    Color range : Limited
    Color primaries : BT.709
    Transfer characteristics : BT.709
    Matrix coefficients : BT.709

    Audio
    ID : 3909 (0xF45)
    Menu ID : 1515 (0x5EB)
    Format : AC-3
    Format/Info : Audio Coding 3
    Mode extension : CM (complete main)
    Format settings, Endianness : Big
    Codec ID : 6
    Duration : 4mn 8s
    Bit rate mode : Constant
    Bit rate : 384 Kbps
    Channel(s) : 2 channels
    Channel positions : Front: L R
    Sampling rate : 48.0 KHz
    Bit depth : 16 bits
    Compression mode : Lossy
    Stream size : 11.4 MiB (9%)
    Language : English
    Hidden Content:
    You must reply before you can see the hidden data contained here.
    Password:
    crusha
     
  2. Loading...


  3. nickiexclusive

    nickiexclusive Video Maniac V . I . P. Uploader

    Joined:
    Sep 23, 2014
    Messages:
    2,605
    Likes Received:
    12,447
    thank you so much
     
  4. juliencrg

    juliencrg New Member

    Joined:
    Mar 15, 2016
    Messages:
    19
    Likes Received:
    0
  5. leanfelipe

    leanfelipe Member

    Joined:
    Mar 24, 2016
    Messages:
    52
    Likes Received:
    2
    vlwwwwwwwwwww
     
  6. miyara

    miyara My reputation died in this forum V . I . P. Uploader

    Joined:
    Feb 21, 2016
    Messages:
    1,033
    Likes Received:
    3,852
    thanks
     
  7. hanshermann

    hanshermann Well-Known Member Uploader

    Joined:
    Aug 24, 2016
    Messages:
    7,020
    Likes Received:
    11,694
    wahts taht
     
  8. DiVenturas

    DiVenturas Well-Known Member

    Joined:
    Oct 21, 2015
    Messages:
    2,791
    Likes Received:
    167
  9. zemino

    zemino Member

    Joined:
    Apr 26, 2014
    Messages:
    168
    Likes Received:
    9
    thanks