CC Nicki Minaj - Starships (VH1HD-1080i-DD2.0-CELOBRAZiL) [CC]-HDMania

Discussion in 'VH1 HD' started by Snorom6, Jun 7, 2016.

  1. Snorom6

    Snorom6 Well-Known Member V . I . P. Uploader

    Joined:
    Dec 17, 2015
    Messages:
    4,248
    Likes Received:
    5,902
    Nicki Minaj - Starships (VH1HD-1080i-DD2.0-CELOBRAZiL) [CC]-HDMania


    [​IMG]


    Code:
    General
    ID                             : 1 (0x1)
    Complete name                  : Nicki Minaj - Starships (VH1HD-1080i-DD2.0-CELOBRAZiL) [CC]-HDMania.ts
    Format                         : MPEG-TS
    File size                      : 245 MiB
    Duration                       : 4mn 8s
    Overall bit rate mode          : Variable
    Overall bit rate               : 8 269 Kbps
    
    Video
    ID                             : 5408 (0x1520)
    Menu ID                        : 625 (0x271)
    Format                         : AVC
    Format/Info                    : Advanced Video Codec
    Format profile                 : High@L4
    Format settings, CABAC         : Yes
    Format settings, ReFrames      : 3 frames
    Codec ID                       : 27
    Duration                       : 4mn 8s
    Bit rate                       : 7 473 Kbps
    Width                          : 1 920 pixels
    Height                         : 1 080 pixels
    Display aspect ratio           : 16:9
    Frame rate                     : 29.970 fps
    Color space                    : YUV
    Chroma subsampling             : 4:2:0
    Bit depth                      : 8 bits
    Scan type                      : MBAFF
    Scan order                     : Top Field First
    Bits/(Pixel*Frame)             : 0.120
    Stream size                    : 222 MiB (90%)
    
    Audio
    ID                             : 5409 (0x1521)
    Menu ID                        : 625 (0x271)
    Format                         : AC-3
    Format/Info                    : Audio Coding 3
    Mode extension                 : CM (complete main)
    Format settings, Endianness    : Big
    Codec ID                       : 129
    Duration                       : 4mn 8s
    Bit rate mode                  : Constant
    Bit rate                       : 384 Kbps
    Channel(s)                     : 2 channels
    Channel positions              : Front: L R
    Sampling rate                  : 48.0 KHz
    Compression mode               : Lossy
    Delay relative to video        : -67ms
    Stream size                    : 11.4 MiB (5%)
    Language                       : English
    
    Text #1
    ID                             : 5408 (0x1520)-CC1
    Menu ID                        : 625 (0x271)
    Format                         : EIA-608
    Muxing mode                    : SCTE 128 / DTVCC Transport
    Muxing mode, more info         : Muxed in Video #1
    Duration                       : 4mn 8s
    Bit rate mode                  : Constant
    Stream size                    : 0.00 Byte (0%)
    
    Text #2
    ID                             : 5408 (0x1520)-1
    Menu ID                        : 625 (0x271)
    Format                         : EIA-708
    Muxing mode                    : SCTE 128 / DTVCC Transport
    Muxing mode, more info         : Muxed in Video #1
    Duration                       : 4mn 8s
    Bit rate mode                  : Constant
    Stream size                    : 0.00 Byte (0%)
    
    

    Hidden Content:
    You must either reply or click 'Like' to see the hidden information contained here.
    Hidden Content:
    You must either reply or click 'Like' to see the hidden information contained here.
     
    Dave, hanshermann and revilo18 like this.
  2. Loading...


  3. haiyo

    haiyo Member

    Joined:
    Aug 21, 2016
    Messages:
    34
    Likes Received:
    2
    thankyou
     
    Snorom6 likes this.
  4. PedroCorrea

    PedroCorrea Active Member

    Joined:
    Aug 21, 2014
    Messages:
    373
    Likes Received:
    53
    thank u
     
    Snorom6 likes this.
  5. senorguti

    senorguti Member

    Joined:
    Jun 1, 2015
    Messages:
    242
    Likes Received:
    3
    thankssssssssssssssssssssssssssssssssssss
     
    Snorom6 likes this.
  6. Attention

    Attention Active Member

    Joined:
    Nov 30, 2013
    Messages:
    562
    Likes Received:
    35
    Thanks!
     
    Snorom6 likes this.
  7. DiVenturas

    DiVenturas Well-Known Member

    Joined:
    Oct 21, 2015
    Messages:
    2,778
    Likes Received:
    162
  8. hanshermann

    hanshermann Well-Known Member Uploader

    Joined:
    Aug 24, 2016
    Messages:
    6,596
    Likes Received:
    10,417
    wahts taht
     
  9. kolass

    kolass Member

    Joined:
    Dec 15, 2017
    Messages:
    101
    Likes Received:
    2
    thanks
     
  10. zemino

    zemino Member

    Joined:
    Apr 26, 2014
    Messages:
    168
    Likes Received:
    9
    thank you