WEB-RiP Nicki Minaj - Road To Success (2018) [1080p AMZN WEB-rip]

Discussion in 'Documentaries' started by clublandtiger, Sep 16, 2018.

  1. RGO(

    RGO( Rodrigo

    Joined:
    Jun 2, 2017
    Messages:
    403
    Likes Received:
    17
    thanks
     
  2. glitch002

    glitch002 Member

    Joined:
    Nov 25, 2017
    Messages:
    73
    Likes Received:
    3
    Than
    k you
     
  3. aaliah

    aaliah Member

    Joined:
    Jul 1, 2018
    Messages:
    102
    Likes Received:
    2
    thanks x
     
  4. Mina345

    Mina345 lmao

    Joined:
    Jul 22, 2017
    Messages:
    198
    Likes Received:
    4
    thanks
     
  5. Iwhxkwb

    Iwhxkwb Member

    Joined:
    Jan 2, 2017
    Messages:
    97
    Likes Received:
    0
    cute cute
     
  6. chokko

    chokko Member

    Joined:
    Dec 10, 2016
    Messages:
    338
    Likes Received:
    18
    thank you
     
  7. xenomorph

    xenomorph Member

    Joined:
    Oct 26, 2016
    Messages:
    88
    Likes Received:
    0
  8. malllll

    malllll Member

    Joined:
    Jan 29, 2019
    Messages:
    66
    Likes Received:
    7
    thanks
     
  9. onika

    onika Member

    Joined:
    Feb 17, 2019
    Messages:
    245
    Likes Received:
    13
    thanks[​IMG]
    [​IMG]
    [​IMG]





    Code:
    Complete name                            : J:\Gemini\Nicki Minaj - Road To Success.mkv
    Format                                   : Matroska
    Format version                           : Version 4 / Version 2
    File size                                : 767 MiB
    Duration                                 : 23 min 43 s
    Overall bit rate                         : 4 518 kb/s
    Movie name                               : Nicki Minaj - Road To Success
    Writing application                      : Lavf56.15.100
    Writing library                          : Lavf56.15.100
    Comment                                  : Before the billboard hits, Nicki Minaj was on her grind like many up and coming artists. Hood Affairs was there to get these exclusive moments of the behind the scenes grind to what would become the biggest female artist in hip-hop history.
    AIRDATE                                  : 2018-03-08T05:00:00
    BROWSEPATH                               : Amazon Prime Video | Search results for "Nicki Minaj - Road To Success" | Included with Prime
    DATE                                     : 2018-03-08T05:00:00
    HASCHAPTERS                              : 0
    MAXSOURCEFPS                             : 29.98
    MEDIA_TYPE                               : 9
    MINSOURCEFPS                             : 29.45
    PATH                                     : https://www.amazon.com/gp/video/detail/B07B9L756F/ref=atv_dp_pb_core?autoplay=1&t=0
    PLVF                                     : 1
    PROPERTIES                               : PEhhc0FkdmVydGlzZW1lbnRzPkZhbHNlPC9IYXNBZHZlcnRpc2VtZW50cz48SUQ+QjA3QjlMNzU2RjwvSUQ+PEFtYXpvblBhZ2VUeXBlPk1vdmllSXRlbTwvQW1hem9uUGFnZVR5cGU+PEFtYXpvbkZhc2V0VHlwZT5Vbmtub3duPC9BbWF6b25GYXNldFR5cGU+PEFtYXpvbkZpbHRlclR5cGU+VW5rbm93bjwvQW1hem9uRmlsdGVyVHlwZT48TnVtYmVyT2ZSZXN1bHRzTWF4PjE8L051bWJlck9mUmVzdWx0c01heD48QVNJTj5CMDdCOUw3NTZGPC9BU0lOPjxicm93c2VQYXRoPkFtYXpvbiBQcmltZSBWaWRlbyB8IFNlYXJjaCByZXN1bHRzIGZvciAiTmlja2kgTWluYWogLSBSb2FkIFRvIFN1Y2Nlc3MiIHwgSW5jbHVkZWQgd2l0aCBQcmltZTwvYnJvd3NlUGF0aD48UmVjb3JkaW5nVGltZUxpbWl0IC8+PFByb3ZpZGVyTmFtZT5BbWF6b24gUHJpbWUgVmlkZW88L1Byb3ZpZGVyTmFtZT4=
    PROVIDERNAME                             : Amazon Prime Video
    RECORDINGTIMESTAMP                       : 2018-09-16T19:36:26
    SOURCEFPS                                : 29.98
    SOURCEID                                 : https://www.amazon.com/gp/video/detail/B07B9L756F/ref=atv_dp_pb_core?autoplay=1&t=0
    STATUS                                   : 2
    THUMBNAILURL                             : https://images-na.ssl-images-amazon.com/images/S/sgp-catalog-images/region_US/e7s26-C62ZW2X6DK8-Full-Image_GalleryCover-en-US-1521577854609._UY500_UX667_PJPrime-Sash-Extra-Large-2017,TopLeft,0,0_RI_V7N8cbBLAM5tNXaOECvRbZ9UgkU7RFn_TTW_.jpg
    
    Video
    ID                                       : 1
    Format                                   : AVC
    Format/Info                              : Advanced Video Codec
    Format profile                           : High@L4
    Format settings                          : 1 Ref Frames
    Format settings, CABAC                   : No
    Format settings, RefFrames               : 1 frame
    Codec ID                                 : V_MPEG4/ISO/AVC
    Duration                                 : 23 min 43 s
    Bit rate                                 : 4 000 kb/s
    Width                                    : 1 920 pixels
    Height                                   : 1 080 pixels
    Display aspect ratio                     : 16:9
    Frame rate mode                          : Constant
    Frame rate                               : 29.970 (29970/1000) FPS
    Color space                              : YUV
    Chroma subsampling                       : 4:2:0
    Bit depth                                : 8 bits
    Scan type                                : Progressive
    Bits/(Pixel*Frame)                       : 0.064
    Stream size                              : 697 MiB (91%)
    Encoding settings                        : cabac=0 / ref=1 / deblock=1:0:0 / analyse=0x1:0x111 / me=hex / subme=2 / psy=1 / psy_rd=1.00:0.00 / mixed_ref=0 / me_range=16 / chroma_me=1 / trellis=0 / 8x8dct=0 / cqm=0 / deadzone=21,11 / fast_pskip=1 / chroma_qp_offset=0 / threads=8 / lookahead_threads=2 / sliced_threads=0 / nr=0 / decimate=1 / interlaced=0 / bluray_compat=0 / constrained_intra=0 / bframes=0 / weightp=0 / keyint=250 / keyint_min=25 / scenecut=40 / intra_refresh=0 / rc_lookahead=10 / rc=abr / mbtree=1 / bitrate=4000 / ratetol=1.0 / qcomp=0.60 / qpmin=0 / qpmax=69 / qpstep=4 / ip_ratio=1.40 / aq=1:1.00
    Default                                  : Yes
    Forced                                   : No
    
    Audio
    ID                                       : 2
    Format                                   : AC-3
    Format/Info                              : Audio Coding 3
    Codec ID                                 : A_AC3
    Duration                                 : 23 min 43 s
    Bit rate mode                            : Constant
    Bit rate                                 : 320 kb/s
    Channel(s)                               : 2 channels
    Channel positions                        : Front: L R
    Sampling rate                            : 44.1 kHz
    Frame rate                               : 28.711 FPS (1536 SPF)
    Bit depth                                : 16 bits
    Compression mode                         : Lossy
    Delay relative to video                  : -6 ms
    Stream size                              : 54.3 MiB (7%)
    Service kind                             : Complete Main
    Default                                  : Yes
    Forced                                   : No

    ***Hidden content cannot be quoted.***


    [/QUOTE]
     
  10. minajicon

    minajicon Member

    Joined:
    Oct 17, 2018
    Messages:
    75
    Likes Received:
    2
    Thank you
     
  11. chiraqminaj

    chiraqminaj Member

    Joined:
    Feb 20, 2019
    Messages:
    73
    Likes Received:
    2
    thank you
     
  12. Official Videos

    Official Videos Active Member

    Joined:
    Dec 1, 2015
    Messages:
    440
    Likes Received:
    29
  13. dennycrane

    dennycrane Active Member

    Joined:
    Apr 15, 2019
    Messages:
    283
    Likes Received:
    41
    Thank you
     
  14. tdrive

    tdrive Member

    Joined:
    Oct 24, 2018
    Messages:
    59
    Likes Received:
    0
    thanks
     
  15. gvygfuyfg

    gvygfuyfg Member

    Joined:
    Mar 12, 2019
    Messages:
    205
    Likes Received:
    7
  16. Buti

    Buti Member

    Joined:
    Apr 23, 2019
    Messages:
    421
    Likes Received:
    17
    Thanks
     
  17. lookinassnika

    lookinassnika Member

    Joined:
    Jan 11, 2017
    Messages:
    656
    Likes Received:
    6
  18. GucciMane

    GucciMane New Member

    Joined:
    Jan 1, 2017
    Messages:
    10
    Likes Received:
    0
    RIP Slim Dunkin
    [​IMG]
     
  19. cyyong29

    cyyong29 Member

    Joined:
    Nov 21, 2016
    Messages:
    66
    Likes Received:
    3
    thank you
     
  20. DERPSKI

    DERPSKI Member

    Joined:
    Apr 27, 2019
    Messages:
    488
    Likes Received:
    17
    GOTTA HAVE EM