WEB-RiP Nicki Minaj - Road To Success (2018) [1080p AMZN WEB-rip]

Discussion in 'Documentaries' started by clublandtiger, Sep 16, 2018.

  1. clublandtiger

    clublandtiger Miraculous Ladybug Capper Uploader Donor

    Joined:
    Apr 4, 2016
    Messages:
    509
    Likes Received:
    3,184
    [​IMG]
    [​IMG]
    [​IMG]





    Code:
    Complete name                            : J:\Gemini\Nicki Minaj - Road To Success.mkv
    Format                                   : Matroska
    Format version                           : Version 4 / Version 2
    File size                                : 767 MiB
    Duration                                 : 23 min 43 s
    Overall bit rate                         : 4 518 kb/s
    Movie name                               : Nicki Minaj - Road To Success
    Writing application                      : Lavf56.15.100
    Writing library                          : Lavf56.15.100
    Comment                                  : Before the billboard hits, Nicki Minaj was on her grind like many up and coming artists. Hood Affairs was there to get these exclusive moments of the behind the scenes grind to what would become the biggest female artist in hip-hop history.
    AIRDATE                                  : 2018-03-08T05:00:00
    BROWSEPATH                               : Amazon Prime Video | Search results for "Nicki Minaj - Road To Success" | Included with Prime
    DATE                                     : 2018-03-08T05:00:00
    HASCHAPTERS                              : 0
    MAXSOURCEFPS                             : 29.98
    MEDIA_TYPE                               : 9
    MINSOURCEFPS                             : 29.45
    PATH                                     : https://www.amazon.com/gp/video/detail/B07B9L756F/ref=atv_dp_pb_core?autoplay=1&t=0
    PLVF                                     : 1
    PROPERTIES                               : PEhhc0FkdmVydGlzZW1lbnRzPkZhbHNlPC9IYXNBZHZlcnRpc2VtZW50cz48SUQ+QjA3QjlMNzU2RjwvSUQ+PEFtYXpvblBhZ2VUeXBlPk1vdmllSXRlbTwvQW1hem9uUGFnZVR5cGU+PEFtYXpvbkZhc2V0VHlwZT5Vbmtub3duPC9BbWF6b25GYXNldFR5cGU+PEFtYXpvbkZpbHRlclR5cGU+VW5rbm93bjwvQW1hem9uRmlsdGVyVHlwZT48TnVtYmVyT2ZSZXN1bHRzTWF4PjE8L051bWJlck9mUmVzdWx0c01heD48QVNJTj5CMDdCOUw3NTZGPC9BU0lOPjxicm93c2VQYXRoPkFtYXpvbiBQcmltZSBWaWRlbyB8IFNlYXJjaCByZXN1bHRzIGZvciAiTmlja2kgTWluYWogLSBSb2FkIFRvIFN1Y2Nlc3MiIHwgSW5jbHVkZWQgd2l0aCBQcmltZTwvYnJvd3NlUGF0aD48UmVjb3JkaW5nVGltZUxpbWl0IC8+PFByb3ZpZGVyTmFtZT5BbWF6b24gUHJpbWUgVmlkZW88L1Byb3ZpZGVyTmFtZT4=
    PROVIDERNAME                             : Amazon Prime Video
    RECORDINGTIMESTAMP                       : 2018-09-16T19:36:26
    SOURCEFPS                                : 29.98
    SOURCEID                                 : https://www.amazon.com/gp/video/detail/B07B9L756F/ref=atv_dp_pb_core?autoplay=1&t=0
    STATUS                                   : 2
    THUMBNAILURL                             : https://images-na.ssl-images-amazon.com/images/S/sgp-catalog-images/region_US/e7s26-C62ZW2X6DK8-Full-Image_GalleryCover-en-US-1521577854609._UY500_UX667_PJPrime-Sash-Extra-Large-2017,TopLeft,0,0_RI_V7N8cbBLAM5tNXaOECvRbZ9UgkU7RFn_TTW_.jpg
    
    Video
    ID                                       : 1
    Format                                   : AVC
    Format/Info                              : Advanced Video Codec
    Format profile                           : High@L4
    Format settings                          : 1 Ref Frames
    Format settings, CABAC                   : No
    Format settings, RefFrames               : 1 frame
    Codec ID                                 : V_MPEG4/ISO/AVC
    Duration                                 : 23 min 43 s
    Bit rate                                 : 4 000 kb/s
    Width                                    : 1 920 pixels
    Height                                   : 1 080 pixels
    Display aspect ratio                     : 16:9
    Frame rate mode                          : Constant
    Frame rate                               : 29.970 (29970/1000) FPS
    Color space                              : YUV
    Chroma subsampling                       : 4:2:0
    Bit depth                                : 8 bits
    Scan type                                : Progressive
    Bits/(Pixel*Frame)                       : 0.064
    Stream size                              : 697 MiB (91%)
    Encoding settings                        : cabac=0 / ref=1 / deblock=1:0:0 / analyse=0x1:0x111 / me=hex / subme=2 / psy=1 / psy_rd=1.00:0.00 / mixed_ref=0 / me_range=16 / chroma_me=1 / trellis=0 / 8x8dct=0 / cqm=0 / deadzone=21,11 / fast_pskip=1 / chroma_qp_offset=0 / threads=8 / lookahead_threads=2 / sliced_threads=0 / nr=0 / decimate=1 / interlaced=0 / bluray_compat=0 / constrained_intra=0 / bframes=0 / weightp=0 / keyint=250 / keyint_min=25 / scenecut=40 / intra_refresh=0 / rc_lookahead=10 / rc=abr / mbtree=1 / bitrate=4000 / ratetol=1.0 / qcomp=0.60 / qpmin=0 / qpmax=69 / qpstep=4 / ip_ratio=1.40 / aq=1:1.00
    Default                                  : Yes
    Forced                                   : No
    
    Audio
    ID                                       : 2
    Format                                   : AC-3
    Format/Info                              : Audio Coding 3
    Codec ID                                 : A_AC3
    Duration                                 : 23 min 43 s
    Bit rate mode                            : Constant
    Bit rate                                 : 320 kb/s
    Channel(s)                               : 2 channels
    Channel positions                        : Front: L R
    Sampling rate                            : 44.1 kHz
    Frame rate                               : 28.711 FPS (1536 SPF)
    Bit depth                                : 16 bits
    Compression mode                         : Lossy
    Delay relative to video                  : -6 ms
    Stream size                              : 54.3 MiB (7%)
    Service kind                             : Complete Main
    Default                                  : Yes
    Forced                                   : No

    Hidden Content:
    You must reply before you can see the hidden data contained here.


     
    aaliah, alex, BlueDayZJAyBoY and 8 others like this.
  2. lloydminaj

    lloydminaj Nicki Minaj stan

    Joined:
    Jan 23, 2017
    Messages:
    446
    Likes Received:
    303
    Thank you
     
  3. kobstheking

    kobstheking Member

    Joined:
    Mar 15, 2017
    Messages:
    205
    Likes Received:
    6
    <3 thnx
     
  4. Causeislae

    Causeislae Active Member

    Joined:
    Jul 9, 2017
    Messages:
    508
    Likes Received:
    42
    Thanks for queen minaj
     
  5. Minajfav

    Minajfav Member

    Joined:
    Jul 2, 2018
    Messages:
    101
    Likes Received:
    5
    thanks
     
  6. P1956

    P1956 Active Member

    Joined:
    Aug 18, 2014
    Messages:
    556
    Likes Received:
    60
    thanks
     
  7. rkgmade

    rkgmade Well-Known Member

    Joined:
    Sep 29, 2016
    Messages:
    1,519
    Likes Received:
    77
    th
    thank you
     
  8. Houson

    Houson Active Member

    Joined:
    Apr 5, 2014
    Messages:
    387
    Likes Received:
    31
    thank you
     
  9. nickiexclusive

    nickiexclusive Video Maniac V . I . P. Uploader

    Joined:
    Sep 23, 2014
    Messages:
    2,657
    Likes Received:
    12,770
    Thank you so much for Nicki
     
  10. cvgff

    cvgff Member

    Joined:
    May 4, 2018
    Messages:
    171
    Likes Received:
    1
    gghhjjhhh
     
  11. zainbhatti1738

    zainbhatti1738 Active Member

    Joined:
    Aug 8, 2016
    Messages:
    322
    Likes Received:
    26
    Thanks
     
  12. miroclisgen

    miroclisgen Member

    Joined:
    Jan 10, 2018
    Messages:
    55
    Likes Received:
    4
    Thanks
     
  13. razha146

    razha146 Member

    Joined:
    Feb 24, 2017
    Messages:
    64
    Likes Received:
    2
    thank you
     
  14. Iwhxkwb

    Iwhxkwb Member

    Joined:
    Jan 2, 2017
    Messages:
    76
    Likes Received:
    0
    she was so tiny
     
  15. rasputin

    rasputin Active Member

    Joined:
    Dec 9, 2015
    Messages:
    673
    Likes Received:
    50
    thanx
     
  16. fccjai

    fccjai Active Member

    Joined:
    Apr 2, 2016
    Messages:
    344
    Likes Received:
    128
    thanks
     
  17. jose2018

    jose2018 Member

    Joined:
    Nov 26, 2016
    Messages:
    438
    Likes Received:
    24
    obrigado
     
  18. alex

    alex Well-Known Member

    Joined:
    Nov 21, 2013
    Messages:
    4,597
    Likes Received:
    403
    thanks
     
  19. poshchick

    poshchick Member

    Joined:
    Apr 5, 2018
    Messages:
    60
    Likes Received:
    0
    thank you
     
  20. Rihfiles

    Rihfiles ♫ because it feels good from head to toe ♫

    Joined:
    Feb 13, 2018
    Messages:
    364
    Likes Received:
    8
    thank you