Nicki Minaj - Right Thru Me (AAC-Upscale-1080p-Adam)

Discussion in 'UPSCALED' started by abdi, Nov 25, 2016.

  1. abdi

    abdi Well-Known Member V . I . P. Uploader

    Joined:
    Sep 23, 2014
    Messages:
    1,851
    Likes Received:
    3,585
    Nicki Minaj - Right Thru Me (AAC-Upscale-1080p-Adam)
    [​IMG]
    [​IMG]
    [​IMG]
    [​IMG]
    [​IMG]
    General
    Complete name : Nicki Minaj - Right Thru Me (AAC-Upscale-1080p-Adam).mov
    Format : MPEG-4
    Format profile : Base Media
    Codec ID : isom
    File size : 150 MiB
    Duration : 3mn 56s
    Overall bit rate mode : Variable
    Overall bit rate : 5 295 Kbps
    Encoded date : UTC 2016-11-24 14:44:11
    Tagged date : UTC 2016-11-24 14:44:11

    Video
    ID : 1
    Format : AVC
    Format/Info : Advanced Video Codec
    Format profile : [email protected]
    Format settings, CABAC : Yes
    Format settings, ReFrames : 4 frames
    Codec ID : avc1
    Codec ID/Info : Advanced Video Coding
    Duration : 3mn 56s
    Bit rate : 5 135 Kbps
    Maximum bit rate : 9 975 Kbps
    Width : 1 920 pixels
    Height : 1 080 pixels
    Display aspect ratio : 16:9
    Frame rate mode : Constant
    Frame rate : 24.000 fps
    Color space : YUV
    Chroma subsampling : 4:2:0
    Bit depth : 8 bits
    Scan type : Progressive
    Bits/(Pixel*Frame) : 0.103
    Stream size : 145 MiB (97%)
    Title : [email protected]
    Writing library : x264 core 144 r2525 40bb568
    Encoding settings : cabac=1 / ref=2 / deblock=1:0:0 / analyse=0x3:0x131 / me=umh / subme=6 / psy=1 / psy_rd=1.00:0.00 / mixed_ref=1 / me_range=16 / chroma_me=1 / trellis=1 / 8x8dct=1 / cqm=0 / deadzone=21,11 / fast_pskip=1 / chroma_qp_offset=-2 / threads=12 / lookahead_threads=2 / sliced_threads=0 / nr=0 / decimate=1 / interlaced=0 / bluray_compat=0 / constrained_intra=0 / bframes=3 / b_pyramid=2 / b_adapt=1 / b_bias=0 / direct=1 / weightb=1 / open_gop=0 / weightp=2 / keyint=250 / keyint_min=23 / scenecut=40 / intra_refresh=0 / rc_lookahead=40 / rc=crf / mbtree=1 / crf=21.0 / qcomp=0.60 / qpmin=0 / qpmax=69 / qpstep=4 / ip_ratio=1.40 / aq=1:1.00
    Encoded date : UTC 2016-11-24 14:44:11
    Tagged date : UTC 2016-11-24 14:44:12

    Audio
    ID : 2
    Format : AAC
    Format/Info : Advanced Audio Codec
    Format profile : LC
    Codec ID : 40
    Duration : 3mn 56s
    Bit rate mode : Variable
    Bit rate : 158 Kbps
    Maximum bit rate : 180 Kbps
    Channel(s) : 2 channels
    Channel positions : Front: L R
    Sampling rate : 48.0 KHz
    Compression mode : Lossy
    Stream size : 4.47 MiB (3%)
    Encoded date : UTC 2016-11-24 14:28:32
    Tagged date : UTC 2016-11-24 14:44:12
    Hidden Content:
    You must reply before you can see the hidden data contained here.
     
    adam dark likes this.
  2. nino.navy

    nino.navy Well-Known Member

    Joined:
    May 30, 2014
    Messages:
    1,656
    Likes Received:
    51
    thanks a lot
     
  3. Official Videos

    Official Videos Member

    Joined:
    Dec 1, 2015
    Messages:
    167
    Likes Received:
    3
  4. multimediafm

    multimediafm Well-Known Member Donor

    Joined:
    Mar 27, 2014
    Messages:
    8,484
    Likes Received:
    352
    Thanks...
     
  5. franklele

    franklele Well-Known Member

    Joined:
    Nov 11, 2013
    Messages:
    1,722
    Likes Received:
    74
    thank you very much
     
  6. mcslimshady

    mcslimshady Member

    Joined:
    Jun 20, 2016
    Messages:
    812
    Likes Received:
    9
    thanks man
     
  7. zainbhatti1738

    zainbhatti1738 Member

    Joined:
    Aug 8, 2016
    Messages:
    62
    Likes Received:
    1
  8. dee jay bird

    dee jay bird New Member

    Joined:
    Oct 17, 2016
    Messages:
    16
    Likes Received:
    0
  9. MannySims

    MannySims New Member

    Joined:
    Aug 11, 2016
    Messages:
    20
    Likes Received:
    0
  10. matt_mor8

    matt_mor8 Member

    Joined:
    Dec 26, 2016
    Messages:
    58
    Likes Received:
    0
    thank you
     
  11. drminaj

    drminaj Member

    Joined:
    Jan 3, 2017
    Messages:
    76
    Likes Received:
    3
    love it
     
  12. alok9

    alok9 Member

    Joined:
    Dec 11, 2016
    Messages:
    52
    Likes Received:
    0
    Thanks
     
  13. D3mon86

    D3mon86 Member

    Joined:
    Dec 19, 2016
    Messages:
    446
    Likes Received:
    2
    thanks
     
  14. EvaS

    EvaS Member

    Joined:
    Mar 15, 2017
    Messages:
    50
    Likes Received:
    1
    Thank you so much:love:
     
  15. xiao_yu_1019

    xiao_yu_1019 Member

    Joined:
    Jan 1, 2015
    Messages:
    254
    Likes Received:
    11