Nicki Minaj - Right Thru Me (AAC-Upscale-1080p-Adam)

Discussion in 'UPSCALED' started by nickiexclusive, Nov 25, 2016.

  1. nickiexclusive

    nickiexclusive Video Maniac V . I . P. Uploader

    Joined:
    Sep 23, 2014
    Messages:
    2,510
    Likes Received:
    11,784
    Nicki Minaj - Right Thru Me (AAC-Upscale-1080p-Adam)
    [​IMG]
    [​IMG]
    [​IMG]
    [​IMG]
    [​IMG]
    General
    Complete name : Nicki Minaj - Right Thru Me (AAC-Upscale-1080p-Adam).mov
    Format : MPEG-4
    Format profile : Base Media
    Codec ID : isom
    File size : 150 MiB
    Duration : 3mn 56s
    Overall bit rate mode : Variable
    Overall bit rate : 5 295 Kbps
    Encoded date : UTC 2016-11-24 14:44:11
    Tagged date : UTC 2016-11-24 14:44:11

    Video
    ID : 1
    Format : AVC
    Format/Info : Advanced Video Codec
    Format profile : High@L3
    Format settings, CABAC : Yes
    Format settings, ReFrames : 4 frames
    Codec ID : avc1
    Codec ID/Info : Advanced Video Coding
    Duration : 3mn 56s
    Bit rate : 5 135 Kbps
    Maximum bit rate : 9 975 Kbps
    Width : 1 920 pixels
    Height : 1 080 pixels
    Display aspect ratio : 16:9
    Frame rate mode : Constant
    Frame rate : 24.000 fps
    Color space : YUV
    Chroma subsampling : 4:2:0
    Bit depth : 8 bits
    Scan type : Progressive
    Bits/(Pixel*Frame) : 0.103
    Stream size : 145 MiB (97%)
    Title : 264@GPAC0.5.2-DEV-rev58-ge59cb02-master
    Writing library : x264 core 144 r2525 40bb568
    Encoding settings : cabac=1 / ref=2 / deblock=1:0:0 / analyse=0x3:0x131 / me=umh / subme=6 / psy=1 / psy_rd=1.00:0.00 / mixed_ref=1 / me_range=16 / chroma_me=1 / trellis=1 / 8x8dct=1 / cqm=0 / deadzone=21,11 / fast_pskip=1 / chroma_qp_offset=-2 / threads=12 / lookahead_threads=2 / sliced_threads=0 / nr=0 / decimate=1 / interlaced=0 / bluray_compat=0 / constrained_intra=0 / bframes=3 / b_pyramid=2 / b_adapt=1 / b_bias=0 / direct=1 / weightb=1 / open_gop=0 / weightp=2 / keyint=250 / keyint_min=23 / scenecut=40 / intra_refresh=0 / rc_lookahead=40 / rc=crf / mbtree=1 / crf=21.0 / qcomp=0.60 / qpmin=0 / qpmax=69 / qpstep=4 / ip_ratio=1.40 / aq=1:1.00
    Encoded date : UTC 2016-11-24 14:44:11
    Tagged date : UTC 2016-11-24 14:44:12

    Audio
    ID : 2
    Format : AAC
    Format/Info : Advanced Audio Codec
    Format profile : LC
    Codec ID : 40
    Duration : 3mn 56s
    Bit rate mode : Variable
    Bit rate : 158 Kbps
    Maximum bit rate : 180 Kbps
    Channel(s) : 2 channels
    Channel positions : Front: L R
    Sampling rate : 48.0 KHz
    Compression mode : Lossy
    Stream size : 4.47 MiB (3%)
    Encoded date : UTC 2016-11-24 14:28:32
    Tagged date : UTC 2016-11-24 14:44:12
    Hidden Content:
    You must reply before you can see the hidden data contained here.
     
    rayyfentyy, Mina345, tp327 and 4 others like this.
  2. Loading...


  3. nino.navy

    nino.navy Well-Known Member

    Joined:
    May 30, 2014
    Messages:
    2,808
    Likes Received:
    171
    thanks a lot
     
  4. Official Videos

    Official Videos Member

    Joined:
    Dec 1, 2015
    Messages:
    376
    Likes Received:
    16
  5. multimediafm

    multimediafm Well-Known Member Donor

    Joined:
    Mar 27, 2014
    Messages:
    12,211
    Likes Received:
    914
    Thanks...
     
  6. franklele

    franklele Well-Known Member

    Joined:
    Nov 11, 2013
    Messages:
    2,341
    Likes Received:
    141
    thank you very much
     
  7. mcslimshady

    mcslimshady Well-Known Member

    Joined:
    Jun 20, 2016
    Messages:
    1,707
    Likes Received:
    43
    thanks man
     
  8. zainbhatti1738

    zainbhatti1738 Member

    Joined:
    Aug 8, 2016
    Messages:
    238
    Likes Received:
    19
  9. dee jay bird

    dee jay bird New Member

    Joined:
    Oct 17, 2016
    Messages:
    28
    Likes Received:
    0
  10. MannySims

    MannySims New Member

    Joined:
    Aug 11, 2016
    Messages:
    20
    Likes Received:
    0
  11. matt_mor8

    matt_mor8 Member

    Joined:
    Dec 26, 2016
    Messages:
    77
    Likes Received:
    0
    thank you
     
  12. drminaj

    drminaj Member

    Joined:
    Jan 3, 2017
    Messages:
    75
    Likes Received:
    4
    love it
     
  13. alok9

    alok9 Member

    Joined:
    Dec 11, 2016
    Messages:
    66
    Likes Received:
    2
    Thanks
     
  14. D3mon86

    D3mon86 Member

    Joined:
    Dec 19, 2016
    Messages:
    849
    Likes Received:
    13
    thanks
     
  15. EvaS

    EvaS Member

    Joined:
    Mar 15, 2017
    Messages:
    66
    Likes Received:
    1
    Thank you so much:love:
     
  16. xiao_yu_1019

    xiao_yu_1019 Active Member

    Joined:
    Jan 1, 2015
    Messages:
    552
    Likes Received:
    40
    thx a lot
     
  17. kobstheking

    kobstheking Member

    Joined:
    Mar 15, 2017
    Messages:
    175
    Likes Received:
    4
    thank you <3
     
  18. daffaz12

    daffaz12 Member

    Joined:
    Dec 25, 2016
    Messages:
    287
    Likes Received:
    9
    Thankss
     
  19. daffaz12

    daffaz12 Member

    Joined:
    Dec 25, 2016
    Messages:
    287
    Likes Received:
    9
    Upscale Tutorial Pleaseee
     
  20. DiVenturas

    DiVenturas Well-Known Member

    Joined:
    Oct 21, 2015
    Messages:
    2,755
    Likes Received:
    157
  21. saemcrh

    saemcrh Well-Known Member

    Joined:
    Jan 17, 2017
    Messages:
    474
    Likes Received:
    2,375
    much thanks!