Nicki Minaj ft. Drake, Lil Wayne, Chris Brown - Only (MTV.HD.LA.1080i.DD2.0).-Crusha

Discussion in 'MTV HD' started by Crusha, Aug 2, 2016.

  1. Crusha

    Crusha Well-Known Member Capper

    Joined:
    Oct 15, 2014
    Messages:
    2,350
    Likes Received:
    2,425
    [​IMG]

    Mediainfo

    Code:
    General
    ID                             : 1 (0x1)
    Complete name                  : Nicki Minaj ft. Drake, Lil Wayne, Chris Brown - Only (MTV.HD.LA.1080i.DD2.0).-Crusha.ts
    Format                         : MPEG-TS
    File size                      : 245 MiB
    Duration                       : 5mn 46s
    Overall bit rate mode          : Variable
    Overall bit rate               : 5 924 Kbps
    
    Video
    ID                             : 4472 (0x1178)
    Menu ID                        : 1893 (0x765)
    Format                         : AVC
    Format/Info                    : Advanced Video Codec
    Format profile                 : High@L4
    Format settings, CABAC         : Yes
    Format settings, ReFrames      : 4 frames
    Codec ID                       : 27
    Duration                       : 5mn 46s
    Bit rate                       : 5 244 Kbps
    Width                          : 1 920 pixels
    Height                         : 1 080 pixels
    Display aspect ratio           : 16:9
    Frame rate                     : 29.970 fps
    Color space                    : YUV
    Chroma subsampling             : 4:2:0
    Bit depth                      : 8 bits
    Scan type                      : MBAFF
    Scan order                     : Top Field First
    Bits/(Pixel*Frame)             : 0.084
    Stream size                    : 217 MiB (88%)
    Color range                    : Limited
    Color primaries                : BT.709
    Transfer characteristics       : BT.709
    Matrix coefficients            : BT.709
    
    Audio
    ID                             : 5014 (0x1396)
    Menu ID                        : 1893 (0x765)
    Format                         : AC-3
    Format/Info                    : Audio Coding 3
    Mode extension                 : CM (complete main)
    Format settings, Endianness    : Big
    Codec ID                       : 6
    Duration                       : 5mn 46s
    Bit rate mode                  : Constant
    Bit rate                       : 384 Kbps
    Channel(s)                     : 2 channels
    Channel positions              : Front: L R
    Sampling rate                  : 48.0 KHz
    Bit depth                      : 16 bits
    Compression mode               : Lossy
    Delay relative to video        : -33ms
    Stream size                    : 15.9 MiB (6%)
    Language                       : English
    
    
    Hidden Content:
    You must reply before you can see the hidden data contained here.
    Password: crusha
     
    rhea likes this.
  2. Loading...


  3. rhea

    rhea Well-Known Member

    Joined:
    Jan 6, 2014
    Messages:
    6,237
    Likes Received:
    524
    thank you
     
  4. abdi

    abdi Hi, if you need something feel free to DM me :) V . I . P. Uploader

    Joined:
    Sep 23, 2014
    Messages:
    2,271
    Likes Received:
    8,726
    thank you
     
  5. Colin01

    Colin01 Member

    Joined:
    Jan 15, 2016
    Messages:
    54
    Likes Received:
    1
    thank you so much
     
  6. Tommyboy

    Tommyboy Member

    Joined:
    Oct 23, 2016
    Messages:
    599
    Likes Received:
    21
    Thank you
     
  7. danilbarbz

    danilbarbz Member

    Joined:
    Jan 6, 2017
    Messages:
    57
    Likes Received:
    5
    :love: