Nicki Minaj - Anaconda 2.0 1080p [Fanmade]

Discussion in 'Music Videos' started by sunand97, Nov 17, 2017.

  1. sunand97

    sunand97 Active Member

    Joined:
    Nov 12, 2016
    Messages:
    287
    Likes Received:
    68
    Hope you guys Enjoy this video edited by me

    General
    Complete name : D:\Nicki Minaj - Anaconda 2.0.mp4
    Format : MPEG-4
    Format profile : Base Media / Version 2
    Codec ID : mp42 (mp42/mp41)
    File size : 324 MiB
    Duration : 4 min 32 s
    Overall bit rate mode : Variable
    Overall bit rate : 9 969 kb/s
    Encoded date : UTC 2017-11-16 15:46:17
    Tagged date : UTC 2017-11-16 15:46:21

    Video
    ID : 1
    Format : AVC
    Format/Info : Advanced Video Codec
    Format profile : Main@L4.1
    Format settings, CABAC : Yes
    Format settings, RefFrames: 3 frames
    Format settings, GOP : M=4, N=29
    Codec ID : avc1
    Codec ID/Info : Advanced Video Coding
    Duration : 4 min 32 s
    Bit rate : 9 646 kb/s
    Width : 1 920 pixels
    Height : 1 080 pixels
    Display aspect ratio : 16:9
    Frame rate mode : Variable
    Frame rate : 29.970 (30000/1001) FPS
    Minimum frame rate : 29.970 FPS
    Maximum frame rate : 30.000 FPS
    Standard : NTSC
    Color space : YUV
    Chroma subsampling : 4:2:0
    Bit depth : 8 bits
    Scan type : Progressive
    Bits/(Pixel*Frame) : 0.155
    Stream size : 314 MiB (97%)
    Language : English
    Encoded date : UTC 2017-11-16 15:46:17
    Tagged date : UTC 2017-11-16 15:46:17
    Color range : Limited
    Color primaries : BT.709
    Transfer characteristics : BT.709
    Matrix coefficients : BT.709
    Audio
    ID : 2
    Format : AAC
    Format/Info : Advanced Audio Codec
    Format profile : LC
    Codec ID : 40
    Duration : 4 min 32 s
    Source duration : 4 min 32 s
    Bit rate mode : Variable
    Bit rate : 317 kb/s
    Maximum bit rate : 421 kb/s
    Channel(s) : 2 channels
    Channel positions : Front: L R
    Sampling rate : 48.0 kHz
    Frame rate : 46.875 FPS (1024 SPF)
    Compression mode : Lossy
    Stream size : 10.3 MiB (3%)
    Source stream size : 10.3 MiB (3%)
    Language : English
    Encoded date : UTC 2017-11-16 15:46:17
    Tagged date : UTC 2017-11-16 15:46:17​

    [​IMG]
    [​IMG]
    [​IMG][​IMG] [​IMG] [​IMG]
    [​IMG] [​IMG] [​IMG] [​IMG] [​IMG]
    Hidden Content:
    You must either reply or click 'Like' to see the hidden information contained here.
     
    gforti, hbToxic, Biszczan and 11 others like this.
  2. Loading...


  3. bvbfan1984

    bvbfan1984 New Member

    Joined:
    Sep 26, 2017
    Messages:
    29
    Likes Received:
    2
    thank you
     
  4. Grizzly3101

    Grizzly3101 Member

    Joined:
    Nov 30, 2016
    Messages:
    156
    Likes Received:
    15
    th
    thanks
     
  5. Grizzly3101

    Grizzly3101 Member

    Joined:
    Nov 30, 2016
    Messages:
    156
    Likes Received:
    15
  6. esliminaj

    esliminaj Member

    Joined:
    May 15, 2017
    Messages:
    225
    Likes Received:
    17
    thanks
     
  7. kabrone2

    kabrone2 Member

    Joined:
    Sep 4, 2016
    Messages:
    325
    Likes Received:
    8
    thanks
     
  8. dljwqmrp

    dljwqmrp Member

    Joined:
    Dec 18, 2016
    Messages:
    84
    Likes Received:
    1
    thanks
     
  9. Vinny

    Vinny Well-Known Member

    Joined:
    Dec 26, 2013
    Messages:
    3,761
    Likes Received:
    41
    Thanks! ;-D
     
  10. viperscan

    viperscan Member

    Joined:
    Jun 3, 2016
    Messages:
    190
    Likes Received:
    11
    thank you
     
  11. Hebadyo

    Hebadyo New Member

    Joined:
    Jul 23, 2017
    Messages:
    27
    Likes Received:
    1
    Thanks
     
  12. jaz12345

    jaz12345 Member

    Joined:
    Apr 9, 2017
    Messages:
    172
    Likes Received:
    3
  13. jingping32055

    jingping32055 New Member

    Joined:
    Dec 20, 2017
    Messages:
    8
    Likes Received:
    0
    thanks you
     
  14. klaus

    klaus Active Member

    Joined:
    Sep 11, 2014
    Messages:
    1,159
    Likes Received:
    23
    thanks
     
  15. Official Videos

    Official Videos Member

    Joined:
    Dec 1, 2015
    Messages:
    371
    Likes Received:
    16
  16. cefa011

    cefa011 Member

    Joined:
    Feb 15, 2015
    Messages:
    104
    Likes Received:
    5
    thanks
     
  17. danilbarbz

    danilbarbz Member

    Joined:
    Jan 6, 2017
    Messages:
    67
    Likes Received:
    6
    :):):):):):):)
     
  18. luismolinanyc

    luismolinanyc Active Member

    Joined:
    May 17, 2016
    Messages:
    867
    Likes Received:
    32
  19. Sobe12345

    Sobe12345 New Member

    Joined:
    Jun 16, 2017
    Messages:
    11
    Likes Received:
    0
    Thank you.
     
  20. hbToxic

    hbToxic Member

    Joined:
    Sep 3, 2016
    Messages:
    121
    Likes Received:
    23
    thanks
     
  21. tuti

    tuti Member

    Joined:
    Jan 25, 2017
    Messages:
    38
    Likes Received:
    0
    thanks