WEB-RiP Niall Horan - Flicker : On the Record (Apple Music)

Discussion in 'Documentaries' started by murayan_k, Sep 11, 2018.

  1. murayan_k

    murayan_k Active Member

    Joined:
    Dec 12, 2016
    Messages:
    171
    Likes Received:
    41
    [​IMG] [​IMG]
    Code:
    General
    Complete name                  : E:\Niall Horan – Flicker:On the Record.mp4
    Format                         : MPEG-4
    Format profile                 : Base Media / Version 2
    Codec ID                       : mp42 (mp42/isom)
    File size                      : 1.19 GiB
    Duration                       : 31 min 6 s
    Overall bit rate mode          : Variable
    Overall bit rate               : 5 460 kb/s
    Movie name                     : .m4v
    Recorded date                  : 2017
    Encoded date                   : UTC 2018-09-10 12:23:49
    Tagged date                    : UTC 2018-09-10 12:32:26
    Cover                          : Yes
    
    Video
    ID                             : 3
    Format                         : AVC
    Format/Info                    : Advanced Video Codec
    Format profile                 : High@L4
    Format settings, CABAC         : Yes
    Format settings, RefFrames     : 4 frames
    Codec ID                       : avc1
    Codec ID/Info                  : Advanced Video Coding
    Duration                       : 31 min 6 s
    Duration_LastFrame             : -38 ms
    Bit rate                       : 5 196 kb/s
    Width                          : 1 912 pixels
    Height                         : 932 pixels
    Display aspect ratio           : 2.052
    Frame rate mode                : Constant
    Frame rate                     : 25.000 FPS
    Color space                    : YUV
    Chroma subsampling             : 4:2:0
    Bit depth                      : 8 bits
    Scan type                      : Progressive
    Bits/(Pixel*Frame)             : 0.117
    Stream size                    : 1.13 GiB (95%)
    Language                       : English
    Encoded date                   : UTC 2018-09-10 12:28:29
    Tagged date                    : UTC 2018-09-10 12:29:39
    Color range                    : Limited
    Color primaries                : BT.709
    Transfer characteristics       : BT.709
    Matrix coefficients            : BT.709
    
    Audio #1
    ID                             : 1
    Format                         : AAC
    Format/Info                    : Advanced Audio Codec
    Format profile                 : LC
    Codec ID                       : 40
    Duration                       : 31 min 6 s
    Duration_LastFrame             : -2 ms
    Bit rate mode                  : Variable
    Bit rate                       : 124 kb/s
    Maximum bit rate               : 208 kb/s
    Channel(s)                     : 2 channels
    Channel positions              : Front: L R
    Sampling rate                  : 48.0 kHz
    Frame rate                     : 46.875 FPS (1024 SPF)
    Compression mode               : Lossy
    Stream size                    : 27.7 MiB (2%)
    Language                       : English
    Default                        : Yes
    Alternate group                : 1
    Encoded date                   : UTC 2018-09-10 12:24:05
    Tagged date                    : UTC 2018-09-10 12:26:18
    Menus                          : 50
    
    Audio #2
    ID                             : 2
    Format                         : AAC
    Format/Info                    : Advanced Audio Codec
    Format profile                 : LC
    Codec ID                       : 40
    Duration                       : 31 min 6 s
    Duration_LastFrame             : -2 ms
    Bit rate mode                  : Variable
    Bit rate                       : 124 kb/s
    Maximum bit rate               : 208 kb/s
    Channel(s)                     : 2 channels
    Channel positions              : Front: L R
    Sampling rate                  : 48.0 kHz
    Frame rate                     : 46.875 FPS (1024 SPF)
    Compression mode               : Lossy
    Stream size                    : 27.7 MiB (2%)
    Language                       : English
    Default                        : No
    Alternate group                : 1
    Encoded date                   : UTC 2018-09-10 12:26:19
    Tagged date                    : UTC 2018-09-10 12:28:28
    tagc                           : public.accessibility.describes-video
    
    Text #1
    ID                             : 4
    Format                         : Timed Text
    Muxing mode                    : sbtl
    Codec ID                       : tx3g
    Duration                       : 30 min 14 s
    Bit rate mode                  : Variable
    Bit rate                       : 162 b/s
    Stream size                    : 35.9 KiB (0%)
    Language                       : Arabic
    Default                        : Yes
    Forced                         : No
    Alternate group                : 2
    Encoded date                   : UTC 2018-09-10 12:29:40
    Tagged date                    : UTC 2018-09-10 12:29:45
    
    Text #2
    ID                             : 5
    Format                         : Timed Text
    Muxing mode                    : sbtl
    Codec ID                       : tx3g
    Duration                       : 30 min 14 s
    Bit rate mode                  : Variable
    Bit rate                       : 128 b/s
    Stream size                    : 28.2 KiB (0%)
    Language                       : Chinese
    Default                        : No
    Forced                         : No
    Alternate group                : 2
    Encoded date                   : UTC 2018-09-10 12:29:46
    Tagged date                    : UTC 2018-09-10 12:29:48
    
    Text #3
    ID                             : 6
    Format                         : Timed Text
    Muxing mode                    : sbtl
    Codec ID                       : tx3g
    Duration                       : 30 min 14 s
    Bit rate mode                  : Variable
    Bit rate                       : 125 b/s
    Stream size                    : 27.7 KiB (0%)
    Language                       : Chinese
    Default                        : No
    Forced                         : No
    Alternate group                : 2
    Encoded date                   : UTC 2018-09-10 12:29:49
    Tagged date                    : UTC 2018-09-10 12:29:52
    
    Text #4
    ID                             : 7
    Format                         : Timed Text
    Muxing mode                    : sbtl
    Codec ID                       : tx3g
    Duration                       : 30 min 14 s
    Bit rate mode                  : Variable
    Bit rate                       : 124 b/s
    Stream size                    : 27.5 KiB (0%)
    Language                       : Czech
    Default                        : No
    Forced                         : No
    Alternate group                : 2
    Encoded date                   : UTC 2018-09-10 12:29:53
    Tagged date                    : UTC 2018-09-10 12:29:55
    
    Text #5
    ID                             : 8
    Format                         : Timed Text
    Muxing mode                    : sbtl
    Codec ID                       : tx3g
    Duration                       : 30 min 14 s
    Bit rate mode                  : Variable
    Bit rate                       : 125 b/s
    Stream size                    : 27.6 KiB (0%)
    Language                       : Danish
    Default                        : No
    Forced                         : No
    Alternate group                : 2
    Encoded date                   : UTC 2018-09-10 12:29:56
    Tagged date                    : UTC 2018-09-10 12:29:59
    
    Text #6
    ID                             : 9
    Format                         : Timed Text
    Muxing mode                    : sbtl
    Codec ID                       : tx3g
    Duration                       : 30 min 14 s
    Bit rate mode                  : Variable
    Bit rate                       : 126 b/s
    Stream size                    : 28.0 KiB (0%)
    Language                       : German
    Default                        : No
    Forced                         : No
    Alternate group                : 2
    Encoded date                   : UTC 2018-09-10 12:30:00
    Tagged date                    : UTC 2018-09-10 12:30:02
    
    Text #7
    ID                             : 10
    Format                         : Timed Text
    Muxing mode                    : sbtl
    Codec ID                       : tx3g
    Duration                       : 30 min 14 s
    Bit rate mode                  : Variable
    Bit rate                       : 126 b/s
    Stream size                    : 28.0 KiB (0%)
    Language                       : German
    Default                        : No
    Forced                         : No
    Alternate group                : 2
    Encoded date                   : UTC 2018-09-10 12:30:03
    Tagged date                    : UTC 2018-09-10 12:30:06
    
    Text #8
    ID                             : 11
    Format                         : Timed Text
    Muxing mode                    : sbtl
    Codec ID                       : tx3g
    Duration                       : 30 min 14 s
    Bit rate mode                  : Variable
    Bit rate                       : 190 b/s
    Stream size                    : 42.0 KiB (0%)
    Language                       : Greek
    Default                        : No
    Forced                         : No
    Alternate group                : 2
    Encoded date                   : UTC 2018-09-10 12:30:07
    Tagged date                    : UTC 2018-09-10 12:30:10
    
    Text #9
    ID                             : 12
    Format                         : Timed Text
    Muxing mode                    : sbtl
    Codec ID                       : tx3g
    Duration                       : 30 min 14 s
    Bit rate mode                  : Variable
    Bit rate                       : 132 b/s
    Stream size                    : 29.2 KiB (0%)
    Language                       : English
    Default                        : No
    Forced                         : No
    Alternate group                : 2
    Encoded date                   : UTC 2018-09-10 12:30:11
    Tagged date                    : UTC 2018-09-10 12:30:13
    
    Text #10
    ID                             : 13
    Format                         : Timed Text
    Muxing mode                    : sbtl
    Codec ID                       : tx3g
    Duration                       : 30 min 14 s
    Bit rate mode                  : Variable
    Bit rate                       : 123 b/s
    Stream size                    : 27.3 KiB (0%)
    Language                       : Spanish
    Default                        : No
    Forced                         : No
    Alternate group                : 2
    Encoded date                   : UTC 2018-09-10 12:30:14
    Tagged date                    : UTC 2018-09-10 12:30:17
    
    Text #11
    ID                             : 14
    Format                         : Timed Text
    Muxing mode                    : sbtl
    Codec ID                       : tx3g
    Duration                       : 30 min 14 s
    Bit rate mode                  : Variable
    Bit rate                       : 127 b/s
    Stream size                    : 28.2 KiB (0%)
    Language                       : Spanish
    Default                        : No
    Forced                         : No
    Alternate group                : 2
    Encoded date                   : UTC 2018-09-10 12:30:18
    Tagged date                    : UTC 2018-09-10 12:30:20
    
    Text #12
    ID                             : 15
    Format                         : Timed Text
    Muxing mode                    : sbtl
    Codec ID                       : tx3g
    Duration                       : 30 min 14 s
    Bit rate mode                  : Variable
    Bit rate                       : 122 b/s
    Stream size                    : 27.1 KiB (0%)
    Language                       : Finnish
    Default                        : No
    Forced                         : No
    Alternate group                : 2
    Encoded date                   : UTC 2018-09-10 12:30:21
    Tagged date                    : UTC 2018-09-10 12:30:24
    
    Text #13
    ID                             : 16
    Format                         : Timed Text
    Muxing mode                    : sbtl
    Codec ID                       : tx3g
    Duration                       : 30 min 14 s
    Bit rate mode                  : Variable
    Bit rate                       : 130 b/s
    Stream size                    : 28.8 KiB (0%)
    Language                       : French
    Default                        : No
    Forced                         : No
    Alternate group                : 2
    Encoded date                   : UTC 2018-09-10 12:30:25
    Tagged date                    : UTC 2018-09-10 12:30:27
    
    Text #14
    ID                             : 17
    Format                         : Timed Text
    Muxing mode                    : sbtl
    Codec ID                       : tx3g
    Duration                       : 30 min 14 s
    Bit rate mode                  : Variable
    Bit rate                       : 126 b/s
    Stream size                    : 27.9 KiB (0%)
    Language                       : French
    Default                        : No
    Forced                         : No
    Alternate group                : 2
    Encoded date                   : UTC 2018-09-10 12:30:28
    Tagged date                    : UTC 2018-09-10 12:30:31
    
    Text #15
    ID                             : 18
    Format                         : Timed Text
    Muxing mode                    : sbtl
    Codec ID                       : tx3g
    Duration                       : 30 min 14 s
    Bit rate mode                  : Variable
    Bit rate                       : 157 b/s
    Stream size                    : 34.9 KiB (0%)
    Language                       : Hebrew
    Default                        : No
    Forced                         : No
    Alternate group                : 2
    Encoded date                   : UTC 2018-09-10 12:30:32
    Tagged date                    : UTC 2018-09-10 12:30:34
    
    Text #16
    ID                             : 19
    Format                         : Timed Text
    Muxing mode                    : sbtl
    Codec ID                       : tx3g
    Duration                       : 30 min 14 s
    Bit rate mode                  : Variable
    Bit rate                       : 226 b/s
    Stream size                    : 49.9 KiB (0%)
    Language                       : Hindi
    Default                        : No
    Forced                         : No
    Alternate group                : 2
    Encoded date                   : UTC 2018-09-10 12:30:35
    Tagged date                    : UTC 2018-09-10 12:30:38
    
    Text #17
    ID                             : 20
    Format                         : Timed Text
    Muxing mode                    : sbtl
    Codec ID                       : tx3g
    Duration                       : 30 min 14 s
    Bit rate mode                  : Variable
    Bit rate                       : 117 b/s
    Stream size                    : 26.0 KiB (0%)
    Language                       : Croatian
    Default                        : No
    Forced                         : No
    Alternate group                : 2
    Encoded date                   : UTC 2018-09-10 12:30:39
    Tagged date                    : UTC 2018-09-10 12:30:41
    
    Text #18
    ID                             : 21
    Format                         : Timed Text
    Muxing mode                    : sbtl
    Codec ID                       : tx3g
    Duration                       : 30 min 14 s
    Bit rate mode                  : Variable
    Bit rate                       : 128 b/s
    Stream size                    : 28.3 KiB (0%)
    Language                       : Hungarian
    Default                        : No
    Forced                         : No
    Alternate group                : 2
    Encoded date                   : UTC 2018-09-10 12:30:42
    Tagged date                    : UTC 2018-09-10 12:30:45
    
    Text #19
    ID                             : 22
    Format                         : Timed Text
    Muxing mode                    : sbtl
    Codec ID                       : tx3g
    Duration                       : 30 min 14 s
    Bit rate mode                  : Variable
    Bit rate                       : 129 b/s
    Stream size                    : 28.6 KiB (0%)
    Language                       : Indonesian
    Default                        : No
    Forced                         : No
    Alternate group                : 2
    Encoded date                   : UTC 2018-09-10 12:30:46
    Tagged date                    : UTC 2018-09-10 12:30:48
    
    Text #20
    ID                             : 23
    Format                         : Timed Text
    Muxing mode                    : sbtl
    Codec ID                       : tx3g
    Duration                       : 30 min 14 s
    Bit rate mode                  : Variable
    Bit rate                       : 127 b/s
    Stream size                    : 28.2 KiB (0%)
    Language                       : Italian
    Default                        : No
    Forced                         : No
    Alternate group                : 2
    Encoded date                   : UTC 2018-09-10 12:30:49
    Tagged date                    : UTC 2018-09-10 12:30:52
    
    Text #21
    ID                             : 24
    Format                         : Timed Text
    Muxing mode                    : sbtl
    Codec ID                       : tx3g
    Duration                       : 30 min 14 s
    Bit rate mode                  : Variable
    Bit rate                       : 135 b/s
    Stream size                    : 30.0 KiB (0%)
    Language                       : Korean
    Default                        : No
    Forced                         : No
    Alternate group                : 2
    Encoded date                   : UTC 2018-09-10 12:30:53
    Tagged date                    : UTC 2018-09-10 12:30:55
    
    Text #22
    ID                             : 25
    Format                         : Timed Text
    Muxing mode                    : sbtl
    Codec ID                       : tx3g
    Duration                       : 30 min 14 s
    Bit rate mode                  : Variable
    Bit rate                       : 130 b/s
    Stream size                    : 28.7 KiB (0%)
    Language                       : Malay
    Default                        : No
    Forced                         : No
    Alternate group                : 2
    Encoded date                   : UTC 2018-09-10 12:30:56
    Tagged date                    : UTC 2018-09-10 12:30:59
    
    Text #23
    ID                             : 26
    Format                         : Timed Text
    Muxing mode                    : sbtl
    Codec ID                       : tx3g
    Duration                       : 30 min 14 s
    Bit rate mode                  : Variable
    Bit rate                       : 125 b/s
    Stream size                    : 27.8 KiB (0%)
    Language                       : Dutch
    Default                        : No
    Forced                         : No
    Alternate group                : 2
    Encoded date                   : UTC 2018-09-10 12:31:00
    Tagged date                    : UTC 2018-09-10 12:31:03
    
    Text #24
    ID                             : 27
    Format                         : Timed Text
    Muxing mode                    : sbtl
    Codec ID                       : tx3g
    Duration                       : 30 min 14 s
    Bit rate mode                  : Variable
    Bit rate                       : 125 b/s
    Stream size                    : 27.6 KiB (0%)
    Language                       : Norwegian
    Default                        : No
    Forced                         : No
    Alternate group                : 2
    Encoded date                   : UTC 2018-09-10 12:31:04
    Tagged date                    : UTC 2018-09-10 12:31:06
    
    Text #25
    ID                             : 28
    Format                         : Timed Text
    Muxing mode                    : sbtl
    Codec ID                       : tx3g
    Duration                       : 30 min 14 s
    Bit rate mode                  : Variable
    Bit rate                       : 118 b/s
    Stream size                    : 26.1 KiB (0%)
    Language                       : Polish
    Default                        : No
    Forced                         : No
    Alternate group                : 2
    Encoded date                   : UTC 2018-09-10 12:31:07
    Tagged date                    : UTC 2018-09-10 12:31:10
    
    Text #26
    ID                             : 29
    Format                         : Timed Text
    Muxing mode                    : sbtl
    Codec ID                       : tx3g
    Duration                       : 30 min 14 s
    Bit rate mode                  : Variable
    Bit rate                       : 124 b/s
    Stream size                    : 27.6 KiB (0%)
    Language                       : Portuguese
    Default                        : No
    Forced                         : No
    Alternate group                : 2
    Encoded date                   : UTC 2018-09-10 12:31:11
    Tagged date                    : UTC 2018-09-10 12:31:13
    
    Text #27
    ID                             : 30
    Format                         : Timed Text
    Muxing mode                    : sbtl
    Codec ID                       : tx3g
    Duration                       : 30 min 14 s
    Bit rate mode                  : Variable
    Bit rate                       : 129 b/s
    Stream size                    : 28.6 KiB (0%)
    Language                       : Portuguese
    Default                        : No
    Forced                         : No
    Alternate group                : 2
    Encoded date                   : UTC 2018-09-10 12:31:14
    Tagged date                    : UTC 2018-09-10 12:31:17
    
    Text #28
    ID                             : 31
    Format                         : Timed Text
    Muxing mode                    : sbtl
    Codec ID                       : tx3g
    Duration                       : 30 min 14 s
    Bit rate mode                  : Variable
    Bit rate                       : 123 b/s
    Stream size                    : 27.3 KiB (0%)
    Language                       : Romanian
    Default                        : No
    Forced                         : No
    Alternate group                : 2
    Encoded date                   : UTC 2018-09-10 12:31:18
    Tagged date                    : UTC 2018-09-10 12:31:20
    
    Text #29
    ID                             : 32
    Format                         : Timed Text
    Muxing mode                    : sbtl
    Codec ID                       : tx3g
    Duration                       : 30 min 14 s
    Bit rate mode                  : Variable
    Bit rate                       : 174 b/s
    Stream size                    : 38.5 KiB (0%)
    Language                       : Russian
    Default                        : No
    Forced                         : No
    Alternate group                : 2
    Encoded date                   : UTC 2018-09-10 12:31:21
    Tagged date                    : UTC 2018-09-10 12:31:24
    
    Text #30
    ID                             : 33
    Format                         : Timed Text
    Muxing mode                    : sbtl
    Codec ID                       : tx3g
    Duration                       : 30 min 14 s
    Bit rate mode                  : Variable
    Bit rate                       : 128 b/s
    Stream size                    : 28.4 KiB (0%)
    Language                       : Slovak
    Default                        : No
    Forced                         : No
    Alternate group                : 2
    Encoded date                   : UTC 2018-09-10 12:31:25
    Tagged date                    : UTC 2018-09-10 12:31:27
    
    Text #31
    ID                             : 34
    Format                         : Timed Text
    Muxing mode                    : sbtl
    Codec ID                       : tx3g
    Duration                       : 30 min 14 s
    Bit rate mode                  : Variable
    Bit rate                       : 122 b/s
    Stream size                    : 27.0 KiB (0%)
    Language                       : Swedish
    Default                        : No
    Forced                         : No
    Alternate group                : 2
    Encoded date                   : UTC 2018-09-10 12:31:28
    Tagged date                    : UTC 2018-09-10 12:31:31
    
    Text #32
    ID                             : 35
    Format                         : Timed Text
    Muxing mode                    : sbtl
    Codec ID                       : tx3g
    Duration                       : 30 min 14 s
    Bit rate mode                  : Variable
    Bit rate                       : 252 b/s
    Stream size                    : 55.7 KiB (0%)
    Language                       : Thai
    Default                        : No
    Forced                         : No
    Alternate group                : 2
    Encoded date                   : UTC 2018-09-10 12:31:32
    Tagged date                    : UTC 2018-09-10 12:31:34
    
    Text #33
    ID                             : 36
    Format                         : Timed Text
    Muxing mode                    : sbtl
    Codec ID                       : tx3g
    Duration                       : 30 min 14 s
    Bit rate mode                  : Variable
    Bit rate                       : 127 b/s
    Stream size                    : 28.2 KiB (0%)
    Language                       : Turkish
    Default                        : No
    Forced                         : No
    Alternate group                : 2
    Encoded date                   : UTC 2018-09-10 12:31:35
    Tagged date                    : UTC 2018-09-10 12:31:38
    
    Text #34
    ID                             : 37
    Format                         : Timed Text
    Muxing mode                    : sbtl
    Codec ID                       : tx3g
    Duration                       : 30 min 14 s
    Bit rate mode                  : Variable
    Bit rate                       : 169 b/s
    Stream size                    : 37.5 KiB (0%)
    Language                       : Ukrainian
    Default                        : No
    Forced                         : No
    Alternate group                : 2
    Encoded date                   : UTC 2018-09-10 12:31:39
    Tagged date                    : UTC 2018-09-10 12:31:41
    
    Text #35
    ID                             : 38
    Format                         : Timed Text
    Muxing mode                    : sbtl
    Codec ID                       : tx3g
    Duration                       : 30 min 14 s
    Bit rate mode                  : Variable
    Bit rate                       : 157 b/s
    Stream size                    : 34.8 KiB (0%)
    Language                       : Vietnamese
    Default                        : No
    Forced                         : No
    Alternate group                : 2
    Encoded date                   : UTC 2018-09-10 12:31:42
    Tagged date                    : UTC 2018-09-10 12:31:45
    
    Text #36
    ID                             : 39
    Format                         : Timed Text
    Muxing mode                    : sbtl
    Codec ID                       : tx3g
    Duration                       : 30 min 14 s
    Bit rate mode                  : Variable
    Bit rate                       : 115 b/s
    Stream size                    : 25.5 KiB (0%)
    Language                       : Chinese
    Default                        : No
    Forced                         : No
    Alternate group                : 2
    Encoded date                   : UTC 2018-09-10 12:31:46
    Tagged date                    : UTC 2018-09-10 12:31:48
    
    Text #37
    ID                             : 40
    Format                         : Timed Text
    Muxing mode                    : sbtl
    Codec ID                       : tx3g
    Duration                       : 29 min 51 s
    Bit rate mode                  : Variable
    Bit rate                       : 77 b/s
    Stream size                    : 16.8 KiB (0%)
    Language                       : Japanese
    Default                        : No
    Forced                         : No
    Alternate group                : 2
    Encoded date                   : UTC 2018-09-10 12:31:49
    Tagged date                    : UTC 2018-09-10 12:31:52
    
    Text #38
    ID                             : 41
    Format                         : Timed Text
    Muxing mode                    : sbtl
    Codec ID                       : tx3g
    Duration                       : 30 min 14 s
    Bit rate mode                  : Variable
    Bit rate                       : 132 b/s
    Stream size                    : 29.3 KiB (0%)
    Language                       : German
    Default                        : No
    Forced                         : No
    Alternate group                : 2
    Encoded date                   : UTC 2018-09-10 12:31:52
    Tagged date                    : UTC 2018-09-10 12:31:55
    
    Text #39
    ID                             : 42
    Format                         : Timed Text
    Muxing mode                    : sbtl
    Codec ID                       : tx3g
    Duration                       : 30 min 14 s
    Bit rate mode                  : Variable
    Bit rate                       : 140 b/s
    Stream size                    : 30.9 KiB (0%)
    Language                       : English
    Default                        : No
    Forced                         : No
    Alternate group                : 2
    Encoded date                   : UTC 2018-09-10 12:31:56
    Tagged date                    : UTC 2018-09-10 12:31:59
    
    Text #40
    ID                             : 43
    Format                         : Timed Text
    Muxing mode                    : sbtl
    Codec ID                       : tx3g
    Duration                       : 30 min 14 s
    Bit rate mode                  : Variable
    Bit rate                       : 129 b/s
    Stream size                    : 28.6 KiB (0%)
    Language                       : Spanish
    Default                        : No
    Forced                         : No
    Alternate group                : 2
    Encoded date                   : UTC 2018-09-10 12:32:00
    Tagged date                    : UTC 2018-09-10 12:32:02
    
    Text #41
    ID                             : 44
    Format                         : Timed Text
    Muxing mode                    : sbtl
    Codec ID                       : tx3g
    Duration                       : 30 min 14 s
    Bit rate mode                  : Variable
    Bit rate                       : 136 b/s
    Stream size                    : 30.1 KiB (0%)
    Language                       : French
    Default                        : No
    Forced                         : No
    Alternate group                : 2
    Encoded date                   : UTC 2018-09-10 12:32:03
    Tagged date                    : UTC 2018-09-10 12:32:06
    
    Text #42
    ID                             : 45
    Format                         : Timed Text
    Muxing mode                    : sbtl
    Codec ID                       : tx3g
    Duration                       : 30 min 14 s
    Bit rate mode                  : Variable
    Bit rate                       : 132 b/s
    Stream size                    : 29.2 KiB (0%)
    Language                       : French
    Default                        : No
    Forced                         : No
    Alternate group                : 2
    Encoded date                   : UTC 2018-09-10 12:32:07
    Tagged date                    : UTC 2018-09-10 12:32:09
    
    Text #43
    ID                             : 46
    Format                         : Timed Text
    Muxing mode                    : sbtl
    Codec ID                       : tx3g
    Duration                       : 30 min 14 s
    Bit rate mode                  : Variable
    Bit rate                       : 127 b/s
    Stream size                    : 28.2 KiB (0%)
    Language                       : Italian
    Default                        : No
    Forced                         : No
    Alternate group                : 2
    Encoded date                   : UTC 2018-09-10 12:32:10
    Tagged date                    : UTC 2018-09-10 12:32:13
    
    Text #44
    ID                             : 47
    Format                         : Timed Text
    Muxing mode                    : sbtl
    Codec ID                       : tx3g
    Duration                       : 30 min 14 s
    Bit rate mode                  : Variable
    Bit rate                       : 183 b/s
    Stream size                    : 40.6 KiB (0%)
    Language                       : Russian
    Default                        : No
    Forced                         : No
    Alternate group                : 2
    Encoded date                   : UTC 2018-09-10 12:32:14
    Tagged date                    : UTC 2018-09-10 12:32:17
    
    Text #45
    ID                             : 48
    Format                         : Timed Text
    Muxing mode                    : sbtl
    Codec ID                       : tx3g
    Duration                       : 30 min 14 s
    Bit rate mode                  : Variable
    Bit rate                       : 134 b/s
    Stream size                    : 29.7 KiB (0%)
    Language                       : Turkish
    Default                        : No
    Forced                         : No
    Alternate group                : 2
    Encoded date                   : UTC 2018-09-10 12:32:18
    Tagged date                    : UTC 2018-09-10 12:32:20
    
    Text #46
    ID                             : 49-CC1
    Format                         : EIA-608
    Muxing mode                    : Final Cut
    Codec ID                       : c608
    Duration                       : 30 min 14 s
    Bit rate mode                  : Constant
    Stream size                    : 0.00 Byte (0%)
    Language                       : English
    Default                        : No
    Forced                         : No
    Alternate group                : 2
    Encoded date                   : UTC 2018-09-10 12:32:21
    Tagged date                    : UTC 2018-09-10 12:32:24
    CaptionServiceName             : CC1
    
    Menu
    ID                             : 50
    Codec ID                       : text
    Duration                       : 31 min 6 s
    Encoded date                   : UTC 2018-09-10 12:32:26
    Tagged date                    : UTC 2018-09-10 12:32:26
    Menu For                       : 1
    Bit rate mode                  : VBR
    Hidden Content:
    You must reply before you can see the hidden data contained here.
     
  2. Mozzie

    Mozzie Member

    Joined:
    Nov 6, 2017
    Messages:
    209
    Likes Received:
    16
    thanks
     
  3. 鄭景文

    鄭景文 Member

    Joined:
    Dec 10, 2017
    Messages:
    309
    Likes Received:
    9
  4. championfilm1996

    championfilm1996 Member

    Joined:
    Dec 16, 2015
    Messages:
    173
    Likes Received:
    3
  5. kamsne

    kamsne Member

    Joined:
    Sep 25, 2017
    Messages:
    37
    Likes Received:
    5
    thank u!
     
  6. mvlmoraes

    mvlmoraes Well-Known Member Donor

    Joined:
    Nov 22, 2013
    Messages:
    3,166
    Likes Received:
    421
  7. handydandy09

    handydandy09 Active Member

    Joined:
    Nov 30, 2015
    Messages:
    699
    Likes Received:
    64