HDTV New Order - Live in Glasgow (2007) BISHD 1080i HDTV DD5.1 H.264 CELOBRAZiL-HDMania

Discussion in 'HD Live Performances' started by CELOBRAZiL, Sep 17, 2020.

  1. CELOBRAZiL

    CELOBRAZiL Well-Known Member Capper V . I . P. Donor

    Joined:
    Oct 2, 2013
    Messages:
    9,193
    Likes Received:
    34,703
    New Order - Live in Glasgow (2007) BISHD 1080i HDTV DD5.1 H.264 CELOBRAZiL-HDMania

    [​IMG]



    Format : MPEG-TS
    File size : 3.48 GiB
    Duration : 56 min 43 s
    Overall bit rate mode : Variable
    Overall bit rate : 8 782 kb/s

    Video
    ID : 1040 (0x410)
    Menu ID : 620 (0x26C)
    Format : AVC
    Format/Info : Advanced Video Codec
    Format profile : High@L4
    Format settings : CABAC / 4 Ref Frames
    Format settings, CABAC : Yes
    Format settings, Reference frames : 4 frames
    Codec ID : 27
    Duration : 56 min 43 s
    Bit rate : 7 702 kb/s
    Width : 1 920 pixels
    Height : 1 080 pixels
    Display aspect ratio : 16:9
    Frame rate : 29.970 (30000/1001) FPS
    Color space : YUV
    Chroma subsampling : 4:2:0
    Bit depth : 8 bits
    Scan type : MBAFF
    Scan type, store method : Interleaved fields
    Scan order : Top Field First
    Bits/(Pixel*Frame) : 0.124
    Stream size : 3.05 GiB (88%)

    Audio #1
    ID : 6102 (0x17D6)
    Menu ID : 620 (0x26C)
    Format : AC-3
    Format/Info : Audio Coding 3
    Commercial name : Dolby Digital
    Codec ID : 129
    Duration : 56 min 43 s
    Bit rate mode : Constant
    Bit rate : 384 kb/s
    Channel(s) : 6 channels
    Channel layout : L R C LFE Ls Rs
    Sampling rate : 48.0 kHz
    Frame rate : 31.250 FPS (1536 SPF)
    Compression mode : Lossy
    Stream size : 156 MiB (4%)
    Language : English
    Service kind : Complete Main

    Audio #2
    ID : 6106 (0x17DA)
    Menu ID : 620 (0x26C)
    Format : MPEG Audio
    Format version : Version 1
    Format profile : Layer 2
    Format settings : Joint stereo / Intensity Stereo + MS Stereo
    Codec ID : 3
    Duration : 56 min 43 s
    Bit rate mode : Constant
    Bit rate : 256 kb/s
    Channel(s) : 2 channels
    Sampling rate : 48.0 kHz
    Frame rate : 41.667 FPS (1152 SPF)
    Compression mode : Lossy
    Stream size : 104 MiB (3%)
    Language : English


    Link(s):
    Hidden Content:
    You must either reply or click 'Like' to see the hidden information contained here.
     
    Adaros and mage like this.
  2. Loading...


  3. CELOBRAZiL

    CELOBRAZiL Well-Known Member Capper V . I . P. Donor

    Joined:
    Oct 2, 2013
    Messages:
    9,193
    Likes Received:
    34,703
    :love::love::love:

    I love New Order!

    Added GOOGLE DRIVE link! :p
     
  4. detroit1

    detroit1 Well-Known Member

    Joined:
    Jan 6, 2014
    Messages:
    4,375
    Likes Received:
    763
    thank you
     
    CELOBRAZiL likes this.
  5. azamusic

    azamusic Well-Known Member Capper

    Joined:
    Dec 6, 2013
    Messages:
    1,419
    Likes Received:
    595
    thank you
     
    CELOBRAZiL likes this.