HDTV Nelly Furtado The Loose Tour 2007 1080i HDTV DD5 1 MPEG2-CtrlHD

Discussion in 'HD Live Performances' started by clublandtiger4, Jun 20, 2019.

  1. clublandtiger4

    clublandtiger4 The Pirate Princess

    Joined:
    Jun 8, 2019
    Messages:
    264
    Likes Received:
    786
    [​IMG]
    [​IMG]

    Code:
    Format                                   : MPEG-TS
    File size                                : 9.61 GiB
    Duration                                 : 1h 20mn
    Overall bit rate mode                    : Variable
    Overall bit rate                         : 17.0 Mbps
    Law rating                               : TV-PG
    
    Video
    ID                                       : 6231 (0x1857)
    Menu ID                                  : 1 (0x1)
    Format                                   : MPEG Video
    Format version                           : Version 2
    Format profile                           : Main@High
    Format settings, BVOP                    : Yes
    Format settings, Matrix                  : Custom
    Format settings, GOP                     : Variable
    Codec ID                                 : 2
    Duration                                 : 1h 20mn
    Bit rate mode                            : Variable
    Bit rate                                 : 15.8 Mbps
    Maximum bit rate                         : 18.1 Mbps
    Width                                    : 1 920 pixels
    Height                                   : 1 080 pixels
    Display aspect ratio                     : 16:9
    Frame rate                               : 29.970 (30000/1001) fps
    Standard                                 : Component
    Color space                              : YUV
    Chroma subsampling                       : 4:2:0
    Bit depth                                : 8 bits
    Compression mode                         : Lossy
    Bits/(Pixel*Frame)                       : 0.254
    Stream size                              : 8.92 GiB (93%)
    Color primaries                          : BT.709
    Transfer characteristics                 : BT.709
    Matrix coefficients                      : BT.709
    
    Audio
    ID                                       : 6232 (0x1858)
    Menu ID                                  : 1 (0x1)
    Format                                   : AC-3
    Format/Info                              : Audio Coding 3
    Mode extension                           : CM (complete main)
    Format settings, Endianness              : Big
    Codec ID                                 : 129
    Duration                                 : 1h 20mn
    Bit rate mode                            : Constant
    Bit rate                                 : 384 Kbps
    Channel(s)                               : 6 channels
    Channel positions                        : Front: L C R, Side: L R, LFE
    Sampling rate                            : 48.0 KHz
    Frame rate                               : 31.250 fps (1536 spf)
    Compression mode                         : Lossy
    Stream size                              : 222 MiB (2%)
    
    Text #1
    ID                                       : 6231 (0x1857)-CC1
    Menu ID                                  : 1 (0x1)
    Format                                   : EIA-608
    Muxing mode                              : A/53 / DTVCC Transport
    Muxing mode, more info                   : Muxed in Video #1
    Duration                                 : 1h 20mn
    Bit rate mode                            : Constant
    Stream size                              : 0.00 Byte (0%)
    
    Text #2
    ID                                       : 6231 (0x1857)-1
    Menu ID                                  : 1 (0x1)
    Format                                   : EIA-708
    Muxing mode                              : A/53 / DTVCC Transport
    Muxing mode, more info                   : Muxed in Video #1
    Duration                                 : 1h 20mn
    Bit rate mode                            : Constant
    Stream size                              : 0.00 Byte (0%)



    Download Server - Yandex.Disk

    Hidden Content:
    You must reply before you can see the hidden data contained here.
     
    bmidea, Kensing, tf135 and 3 others like this.
  2. Loading...


  3. benja

    benja Well-Known Member

    Joined:
    Jan 8, 2014
    Messages:
    1,794
    Likes Received:
    126
    Thank you
     
  4. abangnyasiadek

    abangnyasiadek Member

    Joined:
    Nov 13, 2016
    Messages:
    155
    Likes Received:
    10
    thanks si much
     
  5. detroit1

    detroit1 Well-Known Member

    Joined:
    Jan 6, 2014
    Messages:
    3,802
    Likes Received:
    604
    thank you
     
  6. astra1234

    astra1234 Active Member

    Joined:
    Jul 1, 2016
    Messages:
    285
    Likes Received:
    41
  7. rober31

    rober31 Active Member

    Joined:
    Jun 2, 2017
    Messages:
    737
    Likes Received:
    86
    thanks!!
     
  8. pitolicie

    pitolicie Member

    Joined:
    Apr 4, 2019
    Messages:
    228
    Likes Received:
    1
  9. Valdo

    Valdo Member

    Joined:
    May 18, 2015
    Messages:
    326
    Likes Received:
    14
    Thank you
     
  10. luismolinanyc

    luismolinanyc Well-Known Member

    Joined:
    May 17, 2016
    Messages:
    1,224
    Likes Received:
    41
  11. seanbolandSRC

    seanbolandSRC Member

    Joined:
    Oct 16, 2018
    Messages:
    61
    Likes Received:
    2
  12. azamusic

    azamusic Well-Known Member Capper

    Joined:
    Dec 6, 2013
    Messages:
    1,108
    Likes Received:
    365
    thank ou
     
  13. Thassyo

    Thassyo Well-Known Member

    Joined:
    Oct 9, 2013
    Messages:
    3,288
    Likes Received:
    1,475
    Thanks so much!
     
  14. 3veronicas

    3veronicas Well-Known Member

    Joined:
    Aug 26, 2016
    Messages:
    2,899
    Likes Received:
    176
  15. rhuancesar

    rhuancesar Active Member

    Joined:
    Dec 6, 2017
    Messages:
    439
    Likes Received:
    38
  16. jerson9213

    jerson9213 Active Member

    Joined:
    Aug 30, 2016
    Messages:
    711
    Likes Received:
    48
    gracias!
     
  17. snow69

    snow69 Active Member

    Joined:
    Jan 1, 2017
    Messages:
    423
    Likes Received:
    69
    Thanks
     
  18. tf135

    tf135 Well-Known Member

    Joined:
    Nov 14, 2014
    Messages:
    4,376
    Likes Received:
    236
    thanks
     
  19. multimediafm

    multimediafm Well-Known Member Donor

    Joined:
    Mar 27, 2014
    Messages:
    15,426
    Likes Received:
    1,401
  20. maxkeiser

    maxkeiser Well-Known Member Uploader

    Joined:
    Aug 24, 2016
    Messages:
    7,860
    Likes Received:
    18,949
    wahts taht
     
  21. Ross

    Ross Active Member

    Joined:
    Oct 19, 2014
    Messages:
    787
    Likes Received:
    97
    Thanks