Nelly Furtado - In God's Hands (MHD - Palladia) 1080i HDTV

Discussion in 'MHD' started by 777josem, Dec 9, 2015.

  1. 777josem

    777josem Well-Known Member Uploader

    Joined:
    Sep 1, 2014
    Messages:
    2,557
    Likes Received:
    1,380
    [​IMG]
    Format : MPEG-TS
    File size : 551 MiB
    Duration : 4mn 7s
    Overall bit rate mode : Variable
    Overall bit rate : 18.7 Mbps

    Video
    ID : 17 (0x11)
    Menu ID : 1 (0x1)
    Format : MPEG Video
    Format version : Version 2
    Format profile : [email protected]
    Format settings, BVOP : Yes
    Format settings, Matrix : Custom
    Format settings, GOP : M=3, N=12
    Format settings, picture structure : Frame
    Codec ID : 2
    Duration : 4mn 7s
    Bit rate mode : Variable
    Bit rate : 17.4 Mbps
    Maximum bit rate : 30.0 Mbps
    Width : 1 920 pixels
    Height : 1 080 pixels
    Display aspect ratio : 16:9
    Frame rate : 29.970 (30000/1001) fps
    Color space : YUV
    Chroma subsampling : 4:2:0
    Bit depth : 8 bits
    Scan type : Interlaced
    Scan order : Bottom Field First
    Compression mode : Lossy
    Bits/(Pixel*Frame) : 0.279
    Time code of first frame : 00:00:00;00
    Time code source : Group of pictures header
    GOP, Open/Closed : Open
    GOP, Open/Closed of first frame : Closed
    Stream size : 512 MiB (93%)

    Audio
    ID : 18 (0x12)
    Menu ID : 1 (0x1)
    Format : AC-3
    Format/Info : Audio Coding 3
    Mode extension : CM (complete main)
    Format settings, Endianness : Big
    Codec ID : 129
    Duration : 4mn 7s
    Bit rate mode : Constant
    Bit rate : 384 Kbps
    Channel(s) : 6 channels
    Channel positions : Front: L C R, Side: L R, LFE
    Sampling rate : 48.0 KHz
    Frame rate : 31.250 fps (1536 spf)
    Compression mode : Lossy
    Stream size : 11.3 MiB (2%)
    Hidden Content:
    You must reply before you can see the hidden data contained here.
     
    Vinny likes this.
  2. Loading...


  3. Alexey

    Alexey Active Member

    Joined:
    Sep 29, 2014
    Messages:
    190
    Likes Received:
    66
    thanks
     
  4. Snorom6

    Snorom6 Well-Known Member Uploader

    Joined:
    Dec 17, 2015
    Messages:
    4,245
    Likes Received:
    3,990
  5. yonita

    yonita Active Member

    Joined:
    Mar 7, 2016
    Messages:
    393
    Likes Received:
    38
  6. revilo18

    revilo18 Well-Known Member

    Joined:
    May 26, 2016
    Messages:
    1,482
    Likes Received:
    61
    thankk
     
  7. rikylouis14

    rikylouis14 Well-Known Member

    Joined:
    Jun 27, 2016
    Messages:
    579
    Likes Received:
    288
    thanks!
     
  8. Johan Pinzon

    Johan Pinzon Member

    Joined:
    Aug 15, 2016
    Messages:
    296
    Likes Received:
    11
  9. arasu123

    arasu123 Member

    Joined:
    Aug 8, 2016
    Messages:
    273
    Likes Received:
    10
    thhfghfg
     
  10. CristianMatias

    CristianMatias Member

    Joined:
    Sep 17, 2016
    Messages:
    546
    Likes Received:
    17
    Nelly Furtado
     
  11. km0

    km0 New Member

    Joined:
    Jun 1, 2015
    Messages:
    11
    Likes Received:
    0
    thanks
     
  12. Nelstarmayor

    Nelstarmayor Member

    Joined:
    Nov 13, 2016
    Messages:
    45
    Likes Received:
    1
  13. slill

    slill Member

    Joined:
    Jul 25, 2014
    Messages:
    929
    Likes Received:
    11
    thanks
     
  14. hanshermann

    hanshermann Active Member

    Joined:
    Aug 24, 2016
    Messages:
    2,599
    Likes Received:
    8
    wahts taht