Nelly Furtado - In God's Hands (MHD - Palladia) 1080i HDTV

Discussion in 'MHD' started by 777josem, Dec 9, 2015.

  1. 777josem

    777josem ProRes 1080p LPCM V . I . P. Uploader

    Joined:
    Sep 1, 2014
    Messages:
    3,584
    Likes Received:
    2,753
    [​IMG]
    Format : MPEG-TS
    File size : 551 MiB
    Duration : 4mn 7s
    Overall bit rate mode : Variable
    Overall bit rate : 18.7 Mbps

    Video
    ID : 17 (0x11)
    Menu ID : 1 (0x1)
    Format : MPEG Video
    Format version : Version 2
    Format profile : [email protected]
    Format settings, BVOP : Yes
    Format settings, Matrix : Custom
    Format settings, GOP : M=3, N=12
    Format settings, picture structure : Frame
    Codec ID : 2
    Duration : 4mn 7s
    Bit rate mode : Variable
    Bit rate : 17.4 Mbps
    Maximum bit rate : 30.0 Mbps
    Width : 1 920 pixels
    Height : 1 080 pixels
    Display aspect ratio : 16:9
    Frame rate : 29.970 (30000/1001) fps
    Color space : YUV
    Chroma subsampling : 4:2:0
    Bit depth : 8 bits
    Scan type : Interlaced
    Scan order : Bottom Field First
    Compression mode : Lossy
    Bits/(Pixel*Frame) : 0.279
    Time code of first frame : 00:00:00;00
    Time code source : Group of pictures header
    GOP, Open/Closed : Open
    GOP, Open/Closed of first frame : Closed
    Stream size : 512 MiB (93%)

    Audio
    ID : 18 (0x12)
    Menu ID : 1 (0x1)
    Format : AC-3
    Format/Info : Audio Coding 3
    Mode extension : CM (complete main)
    Format settings, Endianness : Big
    Codec ID : 129
    Duration : 4mn 7s
    Bit rate mode : Constant
    Bit rate : 384 Kbps
    Channel(s) : 6 channels
    Channel positions : Front: L C R, Side: L R, LFE
    Sampling rate : 48.0 KHz
    Frame rate : 31.250 fps (1536 spf)
    Compression mode : Lossy
    Stream size : 11.3 MiB (2%)
    Hidden Content:
    You must reply before you can see the hidden data contained here.
     
    Vinny likes this.
  2. Loading...


  3. Alexey

    Alexey Active Member

    Joined:
    Sep 29, 2014
    Messages:
    202
    Likes Received:
    72
    thanks
     
  4. Snorom6

    Snorom6 Well-Known Member V . I . P. Uploader

    Joined:
    Dec 17, 2015
    Messages:
    4,247
    Likes Received:
    4,882
  5. yonita

    yonita Active Member

    Joined:
    Mar 7, 2016
    Messages:
    429
    Likes Received:
    40
  6. revilo18

    revilo18 Well-Known Member

    Joined:
    May 26, 2016
    Messages:
    1,851
    Likes Received:
    83
    thankk
     
  7. rikylouis14

    rikylouis14 Well-Known Member

    Joined:
    Jun 27, 2016
    Messages:
    717
    Likes Received:
    419
    thanks!
     
  8. Johan Pinzon

    Johan Pinzon Member

    Joined:
    Aug 15, 2016
    Messages:
    304
    Likes Received:
    12
  9. arasu123

    arasu123 Member

    Joined:
    Aug 8, 2016
    Messages:
    441
    Likes Received:
    14
    thhfghfg
     
  10. CristianMatias

    CristianMatias HIGH DEFINITION

    Joined:
    Sep 17, 2016
    Messages:
    806
    Likes Received:
    21
    Nelly Furtado
     
  11. km0

    km0 New Member

    Joined:
    Jun 1, 2015
    Messages:
    11
    Likes Received:
    0
    thanks
     
  12. Nelstarmayor

    Nelstarmayor Member

    Joined:
    Nov 13, 2016
    Messages:
    107
    Likes Received:
    1
  13. slill

    slill Active Member

    Joined:
    Jul 25, 2014
    Messages:
    1,064
    Likes Received:
    15
    thanks
     
  14. hanshermann

    hanshermann Well-Known Member Uploader

    Joined:
    Aug 24, 2016
    Messages:
    4,679
    Likes Received:
    2,393
    wahts taht
     
  15. noriscout

    noriscout Active Member

    Joined:
    Apr 26, 2017
    Messages:
    290
    Likes Received:
    63
    Thanks, friend
     
  16. jerrmx

    jerrmx Member

    Joined:
    Sep 8, 2016
    Messages:
    235
    Likes Received:
    12
    thanks