HDTV Nelly Furtado - Baloise Session 2017 HDTV 720p

Discussion in 'HD Live Performances' started by maxkeiser, Sep 27, 2018.

  1. maxkeiser

    maxkeiser Well-Known Member Uploader

    Joined:
    Aug 24, 2016
    Messages:
    8,098
    Likes Received:
    23,771
    [​IMG]

    Nelly Furtado - Baloise Session 2017.ts

    Code:
    General
    ID                          : 1700 (0x6A4)
    Complete name               : D:\Videos\Sharemania\Nelly Furtado - Baloise Session 2017.ts
    Format                      : MPEG-TS
    File size                   : 6.12 GiB
    Duration                    : 58 min 55 s
    Overall bit rate mode       : Variable
    Overall bit rate            : 14.9 Mb/s
    
    Video
    ID                          : 562 (0x232)
    Menu ID                     : 14052 (0x36E4)
    Format                      : AVC
    Format/Info                 : Advanced Video Codec
    Format profile              : High@L4
    Format settings             : CABAC / 3 Ref Frames
    Format settings, CABAC      : Yes
    Format settings, ReFrames   : 3 frames
    Format settings, GOP        : M=2, N=24
    Codec ID                    : 27
    Duration                    : 38 min 42 s
    Bit rate                    : 13.3 Mb/s
    Width                       : 1 280 pixels
    Height                      : 720 pixels
    Display aspect ratio        : 16:9
    Frame rate                  : 50.000 FPS
    Standard                    : Component
    Color space                 : YUV
    Chroma subsampling          : 4:2:0
    Bit depth                   : 8 bits
    Scan type                   : Progressive
    Bits/(Pixel*Frame)          : 0.289
    Stream size                 : 3.59 GiB (59%)
    Encryption                  : TPS-Crypt  or Viaccess
    Color range                 : Limited
    Color primaries             : BT.709
    Transfer characteristics    : BT.709
    Matrix coefficients         : BT.709
    
    Audio #1
    ID                          : 563 (0x233)
    Menu ID                     : 14052 (0x36E4)
    Format                      : MPEG Audio
    Format version              : Version 1
    Format profile              : Layer 2
    Format settings             : Joint stereo / Intensity Stereo + MS Stereo
    Codec ID                    : 3
    Duration                    : 1 h 15 min
    Bit rate mode               : Constant
    Bit rate                    : 192 kb/s
    Channel(s)                  : 2 channels
    Sampling rate               : 48.0 kHz
    Compression mode            : Lossy
    Delay relative to video     : -104 ms
    Stream size                 : 103 MiB (2%)
    Language                    : Italian
    Language, more info         : Clean effects
    Encryption                  : TPS-Crypt  or Viaccess
    
    Audio #2
    ID                          : 564 (0x234)
    Menu ID                     : 14052 (0x36E4)
    Format                      : MPEG Audio
    Format version              : Version 1
    Format profile              : Layer 2
    Format settings             : Joint stereo / Intensity Stereo + MS Stereo
    Codec ID                    : 3
    Duration                    : 1 h 15 min
    Bit rate mode               : Constant
    Bit rate                    : 192 kb/s
    Channel(s)                  : 2 channels
    Sampling rate               : 48.0 kHz
    Compression mode            : Lossy
    Delay relative to video     : -104 ms
    Stream size                 : 103 MiB (2%)
    Language                    : English
    Language, more info         : Clean effects
    Encryption                  : TPS-Crypt  or Viaccess
    
    Audio #3
    ID                          : 565 (0x235)
    Menu ID                     : 14052 (0x36E4)
    Format                      : AC-3
    Format/Info                 : Audio Coding 3
    Codec ID                    : 6
    Duration                    : 1 h 15 min
    Bit rate mode               : Constant
    Bit rate                    : 448 kb/s
    Channel(s)                  : 6 channels
    Channel positions           : Front: L C R, Side: L R, LFE
    Sampling rate               : 48.0 kHz
    Frame rate                  : 31.250 FPS (1536 SPF)
    Bit depth                   : 16 bits
    Compression mode            : Lossy
    Delay relative to video     : -120 ms
    Stream size                 : 241 MiB (4%)
    Language                    : Italian
    Language, more info         : Clean effects
    Service kind                : Complete Main
    Encryption                  : TPS-Crypt  or Viaccess
    
    Text
    ID                          : 567 (0x237)-777
    Menu ID                     : 14052 (0x36E4)
    Format                      : Teletext Subtitle
    Language                    : Italian
    
    Other
    ID                          : 567 (0x237)-100
    Menu ID                     : 14052 (0x36E4)
    Format                      : Teletext
    Language                    : Italian
    
    Menu
    ID                          : 561 (0x231)
    Menu ID                     : 14052 (0x36E4)
    Duration                    : 58 min 55 s
    List                        : 562 (0x232) (AVC) / 563 (0x233) (MPEG Audio, Italian) / 564 (0x234) (MPEG Audio, English) / 565 (0x235) (AC-3, Italian) / 567 (0x237)-100 (Teletext, it) / 567 (0x237)-777 (Teletext Subtitle, it) / 568 (0x238) () / 5680 (0x1630) () / 5681 (0x1631) ()
    Language                    :  / Italian / English / Italian / Italian / Italian
    
    Hidden Content:
    You must either reply or click 'Like' to see the hidden information contained here.
     
    Last edited: Sep 30, 2018
    rapherrera, Itsfabius, curg and 8 others like this.
  2. Loading...


  3. detroit1

    detroit1 Well-Known Member

    Joined:
    Jan 6, 2014
    Messages:
    4,248
    Likes Received:
    719
    thank you
     
  4. markjackson

    markjackson Well-Known Member

    Joined:
    Jan 8, 2014
    Messages:
    1,473
    Likes Received:
    101
    thank you so much!
     
  5. Marceloo

    Marceloo Member

    Joined:
    Jun 20, 2017
    Messages:
    34
    Likes Received:
    2
    Thanks!
     
  6. Marceloo

    Marceloo Member

    Joined:
    Jun 20, 2017
    Messages:
    34
    Likes Received:
    2
    Can You please post it on Mega or Uploaded or File Factory ? This vandex don't work. Thank You!
     
  7. rasputin

    rasputin Well-Known Member

    Joined:
    Dec 9, 2015
    Messages:
    1,696
    Likes Received:
    140
    thanx
     
  8. miguelmr87

    miguelmr87 Well-Known Member

    Joined:
    Dec 20, 2013
    Messages:
    2,855
    Likes Received:
    787
    oh thanks apreciated it
     
  9. Pavulon

    Pavulon Well-Known Member Donor

    Joined:
    Mar 22, 2016
    Messages:
    5,032
    Likes Received:
    1,534
    thanks:cool:
     
  10. disclosure

    disclosure Member

    Joined:
    Nov 2, 2017
    Messages:
    288
    Likes Received:
    16
    super in
     
  11. miguelmr87

    miguelmr87 Well-Known Member

    Joined:
    Dec 20, 2013
    Messages:
    2,855
    Likes Received:
    787
    Yandex.Disk for mobile devices:
    HelpReport
    © Yandex 2012—2018EN



    Download limit reached. You can still save this file to your Yandex.Disk


    NOW its working
    thank you
     
  12. Bruno

    Bruno Well-Known Member

    Joined:
    Nov 3, 2013
    Messages:
    2,704
    Likes Received:
    258
    many thanks
     
  13. pieperspam

    pieperspam Member Donor

    Joined:
    Jul 10, 2016
    Messages:
    279
    Likes Received:
    10
  14. Marceloo

    Marceloo Member

    Joined:
    Jun 20, 2017
    Messages:
    34
    Likes Received:
    2
    Can You please post it on Mega or Uploaded or File Factory ? This vandex don't work. Thank You! It says I need a Yandex drive....
     
    maxkeiser likes this.
  15. maxkeiser

    maxkeiser Well-Known Member Uploader

    Joined:
    Aug 24, 2016
    Messages:
    8,098
    Likes Received:
    23,771
    ok. I added cloud.mail links.
     
  16. mvlmoraes

    mvlmoraes Well-Known Member Donor

    Joined:
    Nov 22, 2013
    Messages:
    4,076
    Likes Received:
    662
  17. klodrik

    klodrik Well-Known Member

    Joined:
    May 29, 2017
    Messages:
    1,846
    Likes Received:
    116
    Thanks
     
  18. ahkam

    ahkam New Member

    Joined:
    May 5, 2019
    Messages:
    2
    Likes Received:
    0
    thanks
     
  19. orionN

    orionN Well-Known Member

    Joined:
    Jan 26, 2018
    Messages:
    1,437
    Likes Received:
    98
    thank you
     
  20. 25or6to4

    25or6to4 Member

    Joined:
    Oct 20, 2019
    Messages:
    221
    Likes Received:
    18
    thank you !
     
  21. Jenkins

    Jenkins Well-Known Member

    Joined:
    May 30, 2019
    Messages:
    24,637
    Likes Received:
    645
    THANKS