Nelly Furtado - All Good Things (Deluxe Music HD-1080i-DD2.0)-Olgold

Discussion in 'DELUXE MUSIC HD' started by Olgold, Aug 19, 2015.

  1. Olgold

    Olgold Well-Known Member Capper

    Joined:
    Aug 19, 2015
    Messages:
    386
    Likes Received:
    1,332
    [​IMG]

    General
    Format : MPEG-TS
    File size : 169 MiB
    Duration : 3mn 47s
    Overall bit rate mode : Variable
    Overall bit rate : 6 224 Kbps

    Video
    Format : AVC
    Format/Info : Advanced Video Codec
    Format profile : High@L4
    Format settings, CABAC : Yes
    Format settings, ReFrames : 4 frames
    Codec ID : 27
    Duration : 3mn 46s
    Bit rate : 5 529 Kbps
    Width : 1 280 pixels
    Height : 1 080 pixels
    Display aspect ratio : 16:9
    Frame rate : 25.000 fps
    Standard : Component
    Color space : YUV
    Chroma subsampling : 4:2:0
    Bit depth : 8 bits
    Scan type : Interlaced
    Scan order : Top Field First
    Bits/(Pixel*Frame) : 0.160
    Stream size : 149 MiB (88%)
    Color range : Limited


    Audio
    Format : AC-3
    Format/Info : Audio Coding 3
    Mode extension : CM (complete main)
    Format settings, Endianness : Big
    Codec ID : 6
    Duration : 3mn 48s
    Bit rate mode : Constant
    Bit rate : 384 Kbps
    Channel(s) : 2 channels
    Channel positions : Front: L R
    Sampling rate : 48.0 KHz
    Compression mode : Lossy
    Delay relative to video : -533ms
    Stream size : 10.4 MiB (6%)
    Language : German
    Hidden Content:
    You must reply before you can see the hidden data contained here.
     
    Last edited: Aug 19, 2015
    leryck, Dreamer, rhea and 2 others like this.
  2. 777josem

    777josem Well-Known Member Uploader

    Joined:
    Sep 1, 2014
    Messages:
    2,460
    Likes Received:
    1,336
    :DThank you so much!
     
  3. Crusha

    Crusha Well-Known Member Capper

    Joined:
    Oct 15, 2014
    Messages:
    2,350
    Likes Received:
    2,176
    thank you
     
  4. Dreamer

    Dreamer Well-Known Member Capper Uploader

    Joined:
    Dec 4, 2014
    Messages:
    2,293
    Likes Received:
    2,138
    I like this song so much. Thank u a lot :D
     
  5. MaggieS

    MaggieS Active Member

    Joined:
    Sep 19, 2014
    Messages:
    940
    Likes Received:
    34
    :greedy:
     
  6. Zatimi

    Zatimi Active Member

    Joined:
    Aug 27, 2014
    Messages:
    604
    Likes Received:
    67
    thanks a million
     
  7. rhea

    rhea Well-Known Member

    Joined:
    Jan 6, 2014
    Messages:
    5,406
    Likes Received:
    265
    thank you so much :)
     
  8. adam136

    adam136 Member

    Joined:
    Jan 8, 2015
    Messages:
    54
    Likes Received:
    1
    Thank you so much
     
  9. adam136

    adam136 Member

    Joined:
    Jan 8, 2015
    Messages:
    54
    Likes Received:
    1
    Thank you so much
     
  10. Grailen

    Grailen Well-Known Member

    Joined:
    Oct 8, 2013
    Messages:
    549
    Likes Received:
    582
    thank you
     
  11. Regis

    Regis Well-Known Member

    Joined:
    Jul 14, 2015
    Messages:
    1,000
    Likes Received:
    25
    Thank you so much
     
  12. Himperios

    Himperios Member

    Joined:
    Oct 11, 2015
    Messages:
    282
    Likes Received:
    14
    good
     
  13. lukierrywhere

    lukierrywhere Member

    Joined:
    May 1, 2015
    Messages:
    157
    Likes Received:
    1
  14. J_Pablo

    J_Pablo Active Member

    Joined:
    Nov 27, 2013
    Messages:
    442
    Likes Received:
    73
    Great song. Thank you for the video
     
  15. Zanx94

    Zanx94 Member

    Joined:
    Nov 21, 2013
    Messages:
    118
    Likes Received:
    7
    Thank you so much...good quaity
     
  16. larzpolanzki

    larzpolanzki Member

    Joined:
    Feb 10, 2014
    Messages:
    412
    Likes Received:
    12
    fantastic video thanks for video
     
  17. maurohachen

    maurohachen Member

    Joined:
    Feb 24, 2015
    Messages:
    396
    Likes Received:
    17
    fantastic video thanks for video
     
  18. Christian Antichrist

    Christian Antichrist Member

    Joined:
    Jan 3, 2016
    Messages:
    208
    Likes Received:
    2
  19. rdpillz

    rdpillz Member

    Joined:
    Mar 13, 2016
    Messages:
    62
    Likes Received:
    1
    thanks
     
  20. namal

    namal New Member

    Joined:
    Apr 11, 2016
    Messages:
    5
    Likes Received:
    0
    greaat one this