SERIES Nella the Princess Knight - Season 1 - 1080p Amazon WEB-DL DDP2.0 H.264-LAZY

Discussion in 'Cinema Center' started by LazyRips, Oct 28, 2020.

  1. LazyRips

    LazyRips Well-Known Member

    Joined:
    Apr 5, 2016
    Messages:
    116
    Likes Received:
    729
    Nella and the Princess Knight:[​IMG]

    General
    Unique ID : 259033243281107581508584944413795741517 (0xC2DFFCEC6EE002724778FB6C7C34EF4D)
    Complete name : Nella.the.Princess.Knight.S01E01E02.Inside.and.Seek.-.Knighty-Knight.Dragons.1080p.AMZN.WEB-DL.DDP2.0.H.264-LAZY.mkv
    Format : Matroska
    Format version : Version 4
    File size : 534 MiB
    Duration : 22 min 40 s
    Overall bit rate : 3 292 kb/s
    Encoded date : UTC 2020-10-27 15:08:01
    Writing application : mkvmerge v45.0.0 ('Heaven in Pennies') 64-bit
    Writing library : libebml v1.3.10 + libmatroska v1.5.2

    Video
    ID : 1
    Format : AVC
    Format/Info : Advanced Video Codec
    Format profile : High@L4
    Format settings : CABAC / 4 Ref Frames
    Format settings, CABAC : Yes
    Format settings, RefFrames : 4 frames
    Codec ID : V_MPEG4/ISO/AVC
    Duration : 22 min 40 s
    Bit rate : 3 066 kb/s
    Width : 1 920 pixels
    Height : 1 080 pixels
    Display aspect ratio : 16:9
    Frame rate mode : Constant
    Frame rate : 23.976 (24000/1001) FPS
    Color space : YUV
    Chroma subsampling : 4:2:0
    Bit depth : 8 bits
    Scan type : Progressive
    Bits/(Pixel*Frame) : 0.062
    Stream size : 497 MiB (93%)
    Default : Yes
    Forced : No
    Color range : Limited
    Color primaries : BT.709
    Transfer characteristics : BT.709
    Matrix coefficients : BT.709

    Audio
    ID : 2
    Format : E-AC-3
    Format/Info : Enhanced AC-3
    Commercial name : Dolby Digital Plus
    Codec ID : A_EAC3
    Duration : 22 min 40 s
    Bit rate mode : Constant
    Bit rate : 224 kb/s
    Channel(s) : 2 channels
    Channel layout : L R
    Sampling rate : 48.0 kHz
    Frame rate : 31.250 FPS (1536 SPF)
    Compression mode : Lossy
    Stream size : 36.3 MiB (7%)
    Title : English
    Language : English
    Service kind : Complete Main
    Default : Yes
    Forced : No

    Text
    ID : 3
    Format : UTF-8
    Codec ID : S_TEXT/UTF8
    Codec ID/Info : UTF-8 Plain Text
    Duration : 22 min 2 s
    Bit rate : 88 b/s
    Count of elements : 563
    Stream size : 14.2 KiB (0%)
    Title : English [SDH]
    Language : English
    Default : No
    Forced : No
    Screenshots:
    [​IMG]
    Hidden Content:
    You must either reply or click 'Like' to see the hidden information contained here.
     
  2. Loading...


  3. 2J1S90

    2J1S90 Active Member

    Joined:
    Nov 23, 2016
    Messages:
    823
    Likes Received:
    43
    Thanks~!
     
    LazyRips likes this.