Natasha Bedingfield - Touch (1080i) HDTV DD5.1 MPEG2-TrollHD

Discussion in 'MUSIC CHOICE' started by RGF72K, Nov 1, 2013.

  1. RGF72K

    RGF72K ????? Staff Member Super Moderator

    Joined:
    Oct 1, 2013
    Messages:
    1,020
    Likes Received:
    14,600
    [​IMG]

    Code:
          Complete name : (Music Video) Natasha Bedingfield - Touch 1080i HDTV DD5.1 MPEG2-TrollHD.ts
          Format : MPEG-TS
          File size : 493 MiB
          Duration : 3mn 44s
          Overall bit rate mode : Variable
          Overall bit rate : 18.4 Mbps
      Video #548
          ID : 548 (0x224)
          Menu ID : 1 (0x1)
          Format : MPEG Video
          Format version : Version 2
          Format profile : [email protected]
          Format settings, BVOP : Yes
          Format settings, Matrix : Custom
          Format settings, GOP : M=3, N=15
          Codec ID : 2
          Duration : 3mn 44s
          Bit rate mode : Variable
          Bit rate : 17.1 Mbps
          Maximum bit rate : 80.0 Mbps
          Width : 1 920 pixels
          Height : 1 080 pixels
          Display aspect ratio : 16:9
          Frame rate : 29.970 fps
          Color space : YUV
          Chroma subsampling : 4:2:0
          Bit depth : 8 bits
          Scan type : Interlaced
          Scan order : Top Field First
          Compression mode : Lossy
          Bits/(Pixel*Frame) : 0.275
          Time code of first frame : 00:00:00;00
          Time code source : Group of pictures header
          Stream size : 458 MiB (93%)
      Audio #547
          ID : 547 (0x223)
          Menu ID : 1 (0x1)
          Format : AC-3
          Format/Info : Audio Coding 3
          Mode extension : CM (complete main)
          Format settings, Endianness : Big
          Codec ID : 129
          Duration : 3mn 44s
          Bit rate mode : Constant
          Bit rate : 384 Kbps
          Channel(s) : 6 channels
          Channel positions : Front: L C R, Side: L R, LFE
          Sampling rate : 48.0 KHz
          Bit depth : 16 bits
          Compression mode : Lossy
          Stream size : 10.3 MiB (2%)
          Language : English
      Text #548-CC1
          ID : 548 (0x224)-CC1
          Menu ID : 1 (0x1)
          Format : EIA-608
          Muxing mode : A/53 / DTVCC Transport
          Muxing mode, more info : Muxed in Video #1
          Duration : 3mn 44s
          Bit rate mode : Constant
          Stream size : 0.00 Byte (0%)
      Text #548-1
          ID : 548 (0x224)-1
          Menu ID : 1 (0x1)
          Format : EIA-708
          Muxing mode : A/53 / DTVCC Transport
          Muxing mode, more info : Muxed in Video #1
          Duration : 3mn 44s
          Bit rate mode : Constant
          Stream size : 0.00 Byte (0%)


    Download:
    Hidden Content:
    You must either reply or click 'Like' to see the hidden information contained here.


    Password: sharemania.net


    Capper: TrollHD
     
    Vinny, grepitu, mehmet and 4 others like this.
  2. Loading...


  3. dgnio

    dgnio Well-Known Member

    Joined:
    Jul 7, 2014
    Messages:
    1,602
    Likes Received:
    317
     
  4. santa321

    santa321 Active Member

    Joined:
    Dec 7, 2013
    Messages:
    1,221
    Likes Received:
    23
    thanks
     
  5. Andreas Ponikau

    Andreas Ponikau Member

    Joined:
    Feb 4, 2015
    Messages:
    246
    Likes Received:
    20
    thanks
     
  6. slill

    slill Member

    Joined:
    Jul 25, 2014
    Messages:
    929
    Likes Received:
    11
    thanks
     
  7. dgnio

    dgnio Well-Known Member

    Joined:
    Jul 7, 2014
    Messages:
    1,602
    Likes Received:
    317
    thanks very much!
     
  8. J_Pablo

    J_Pablo Active Member

    Joined:
    Nov 27, 2013
    Messages:
    468
    Likes Received:
    85
    Thanks! love this song