'N Sync - Bye Bye Bye (MTVIDOL-1080i-DD2.0-Djodjara)-HDMania

Discussion in 'MTV IDOL' started by Djodjara, May 8, 2015.

  1. Djodjara

    Djodjara Gwen Fan Capper

    Joined:
    Sep 6, 2014
    Messages:
    888
    Likes Received:
    1,655
    'N Sync - Bye Bye Bye (MTV Idol-1080i-Djodjara)-HDMania

    [​IMG]
    [​IMG]

    General:
    ID : 1 (0x1)
    Format : MPEG-TS
    File size : 159 MiB
    Duration : 3mn 57s
    Overall bit rate mode : Variable
    Overall bit rate : 5 599 Kbps

    Video:
    ID : 310 (0x136)
    Menu ID : 1 (0x1)
    Format : AVC
    Format/Info : Advanced Video Codec
    Format profile : High@L4.0
    Format settings, CABAC : Yes
    Format settings, ReFrames : 4 frames
    Codec ID : 27
    Duration : 3mn 57s
    Bit rate : 5 129 Kbps
    Width : 1 920 pixels
    Height : 1 080 pixels
    Display aspect ratio : 16:9
    Frame rate : 25.000 fps
    Standard : Component
    Color space : YUV
    Chroma subsampling : 4:2:0
    Bit depth : 8 bits
    Scan type : MBAFF
    Scan order : Top Field First
    Bits/(Pixel*Frame) : 0.099
    Stream size : 145 MiB (92%)
    Color primaries : BT.709
    Transfer characteristics : BT.709
    Matrix coefficients : BT.709
    Color range : Limited

    Audio:
    ID : 321 (0x141)
    Menu ID : 1 (0x1)
    Format : AC-3
    Format/Info : Audio Coding 3
    Mode extension : CM (complete main)
    Format settings, Endianness : Big
    Codec ID : 6
    Duration : 3mn 57s
    Bit rate mode : Constant
    Bit rate : 192 Kbps
    Channel(s) : 2 channels
    Channel positions : Front: L R
    Sampling rate : 48.0 KHz
    Bit depth : 16 bits
    Compression mode : Lossy
    Stream size : 5.44 MiB (3%)
    Language : French

    Hidden Content:
    You must reply before you can see the hidden data contained here.
     
  2. 777josem

    777josem ProRes 1080p LPCM

    Joined:
    Sep 1, 2014
    Messages:
    3,737
    Likes Received:
    3,242
    :happy:Thank you so much!:love:I love the classics!
     
    Djodjara likes this.
  3. DETOX

    DETOX Don't leave me locked in your heart... ♫ V . I . P. Uploader

    Joined:
    Feb 20, 2014
    Messages:
    4,452
    Likes Received:
    36,162
    Thank you!
     
  4. Dreamer

    Dreamer Lana Del Rey ♥ Halsey ♥ Iggy Azalea Capper V . I . P. Uploader

    Joined:
    Dec 4, 2014
    Messages:
    3,012
    Likes Received:
    5,302
    Thank you
     
  5. multimediafm

    multimediafm Well-Known Member Donor

    Joined:
    Mar 27, 2014
    Messages:
    11,970
    Likes Received:
    794
    Thanks :)
    N Sync - Bye Bye Bye (MTV Idol-1080i-Djodjara)-HDMania
     
  6. Zatimi

    Zatimi Active Member

    Joined:
    Aug 27, 2014
    Messages:
    814
    Likes Received:
    174
    thanks so much
     
  7. tsm897

    tsm897 Member

    Joined:
    Apr 16, 2014
    Messages:
    144
    Likes Received:
    5
    thank you
     
  8. Loverfire

    Loverfire New Member

    Joined:
    Mar 10, 2015
    Messages:
    17
    Likes Received:
    0
    Thanks you Friend
     
  9. By.YLDz

    By.YLDz Hayley Williams Fan :) Capper

    Joined:
    Oct 7, 2013
    Messages:
    366
    Likes Received:
    4,320
    Thank you so much!! ;-)
     
  10. 江雨燃双鱼

    江雨燃双鱼 Active Member

    Joined:
    Apr 5, 2014
    Messages:
    614
    Likes Received:
    45
    Thank you so much!! ;-)
     
  11. rhea

    rhea Well-Known Member

    Joined:
    Jan 6, 2014
    Messages:
    7,550
    Likes Received:
    903
    thank you so much :)
     
  12. amirdvb

    amirdvb Member

    Joined:
    Feb 1, 2015
    Messages:
    508
    Likes Received:
    17
    thanks so much
     
  13. elejido10

    elejido10 Member

    Joined:
    Oct 27, 2013
    Messages:
    192
    Likes Received:
    0
    thanks so much
     
  14. lifevirgin

    lifevirgin Active Member

    Joined:
    Feb 15, 2014
    Messages:
    465
    Likes Received:
    37
  15. dapape

    dapape Member

    Joined:
    Jun 9, 2014
    Messages:
    134
    Likes Received:
    1
    Nice XD
     
  16. Joseph1020

    Joseph1020 Member

    Joined:
    May 26, 2015
    Messages:
    68
    Likes Received:
    0
  17. Crusha

    Crusha Well-Known Member Capper V . I . P.

    Joined:
    Oct 15, 2014
    Messages:
    2,358
    Likes Received:
    2,780
    thank you :)
     
  18. BinhTVT

    BinhTVT Member

    Joined:
    Jun 30, 2015
    Messages:
    239
    Likes Received:
    3
    thank you very much
     
    CELOBRAZiL likes this.
  19. Emazing

    Emazing Member

    Joined:
    Nov 6, 2013
    Messages:
    48
    Likes Received:
    0
    ye thanks to the capper
     
  20. BetaKsi

    BetaKsi Well-Known Member

    Joined:
    Oct 18, 2015
    Messages:
    1,702
    Likes Received:
    495
    N`Sync))) Justin))) Thank you)))