Muse - Pressure (LPCM-Master-ProRes-1152p)

Discussion in 'PRORES' started by Vector09, Dec 6, 2018.

  1. Vector09

    Vector09 Well-Known Member

    Joined:
    Feb 16, 2016
    Messages:
    451
    Likes Received:
    819
    [​IMG]
    Code:
    General
    Complete name                  : D:\Muse - Pressure (LPCM-Master-ProRes-1152p).mov
    Format                         : MPEG-4
    Format profile                 : QuickTime
    Codec ID                       : qt   2005.03 (qt  )
    File size                      : 7.23 GiB
    Duration                       : 5 min 9 s
    Overall bit rate mode          : Variable
    Overall bit rate               : 201 Mb/s
    Encoded date                   : UTC 2018-09-27 06:02:53
    Tagged date                    : UTC 2018-09-27 06:09:31
    Writing library                : Apple QuickTime
    ㏕IM                            : 00:59:59:22
    ㏕SC                            : 24000
    ㏕SZ                            : 1001
    
    Video
    ID                             : 1
    Format                         : ProRes
    Format version                 : Version 0
    Format profile                 : 422 HQ
    Codec ID                       : apch
    Duration                       : 5 min 9 s
    Bit rate mode                  : Variable
    Bit rate                       : 199 Mb/s
    Width                          : 2 048 pixels
    Height                         : 1 152 pixels
    Display aspect ratio           : 16:9
    Frame rate mode                : Constant
    Frame rate                     : 23.976 (24000/1001) FPS
    Color space                    : YUV
    Chroma subsampling             : 4:2:2
    Scan type                      : Progressive
    Bits/(Pixel*Frame)             : 3.519
    Stream size                    : 7.18 GiB (99%)
    Writing library                : Apple
    Language                       : English
    Encoded date                   : UTC 2018-09-27 06:02:53
    Tagged date                    : UTC 2018-09-27 06:02:53
    Color primaries                : BT.709
    Transfer characteristics       : BT.709
    Matrix coefficients            : BT.709
    
    Audio
    ID                             : 2
    Format                         : PCM
    Format settings, Endianness    : Little
    Format settings, Sign          : Signed
    Codec ID                       : sowt
    Duration                       : 5 min 9 s
    Bit rate mode                  : Constant
    Bit rate                       : 1 536 kb/s
    Channel(s)                     : 2 channels
    Channel positions              : Front: L R
    Sampling rate                  : 48.0 kHz
    Bit depth                      : 16 bits
    Stream size                    : 56.7 MiB (1%)
    Language                       : English
    Encoded date                   : UTC 2018-09-27 06:02:53
    Tagged date                    : UTC 2018-09-27 06:02:53
    
    Other
    ID                             : 3
    Type                           : Time code
    Format                         : QuickTime TC
    Duration                       : 5 min 9 s
    Time code of first frame       : 00:59:59:22
    Time code, striped             : Yes
    Language                       : English
    Encoded date                   : UTC 2018-09-27 06:02:53
    Tagged date                    : UTC 2018-09-27 06:02:53
    
    


    Download:
    Hidden Content:
    You must reply before you can see the hidden data contained here.
     
    pizza69 and Hossein Enr7que like this.
  2. jeaneyne

    jeaneyne Well-Known Member

    Joined:
    Oct 21, 2013
    Messages:
    1,514
    Likes Received:
    570
  3. Swizzle

    Swizzle Member

    Joined:
    Nov 9, 2018
    Messages:
    88
    Likes Received:
    5
    thanks
     
  4. TomArrowich

    TomArrowich Member

    Joined:
    Sep 3, 2017
    Messages:
    149
    Likes Received:
    4
  5. biglovejoy

    biglovejoy Well-Known Member

    Joined:
    Jan 10, 2018
    Messages:
    1,321
    Likes Received:
    88
  6. Vinny

    Vinny Well-Known Member

    Joined:
    Dec 26, 2013
    Messages:
    4,190
    Likes Received:
    55
    Thanks
     
  7. Thicautmout1972

    Thicautmout1972 New Member

    Joined:
    Dec 30, 2018
    Messages:
    23
    Likes Received:
    1
    thank you so much!
     
  8. multimediafm

    multimediafm Well-Known Member Donor

    Joined:
    Mar 27, 2014
    Messages:
    14,315
    Likes Received:
    1,145
  9. mast_indian_80

    mast_indian_80 Member

    Joined:
    Sep 27, 2018
    Messages:
    192
    Likes Received:
    6
  10. nickiminajthebest

    nickiminajthebest Nicki Minaj

    Joined:
    Aug 16, 2016
    Messages:
    197
    Likes Received:
    311
    thanks
     
  11. Jose Guillermo

    Jose Guillermo Active Member

    Joined:
    Sep 22, 2018
    Messages:
    643
    Likes Received:
    50
  12. Galaxy9191

    Galaxy9191 Member

    Joined:
    Jul 1, 2017
    Messages:
    537
    Likes Received:
    13
    مرسی ممنون بابت پست مفید شما لطفا بیشتر پست مفید بزارید
     
  13. P1956

    P1956 Active Member

    Joined:
    Aug 18, 2014
    Messages:
    735
    Likes Received:
    69
    thanks
     
  14. Nzo

    Nzo Member

    Joined:
    Aug 16, 2016
    Messages:
    58
    Likes Received:
    1
    Thanks
     
  15. brenoallex

    brenoallex Active Member

    Joined:
    Sep 4, 2016
    Messages:
    950
    Likes Received:
    137
    thanks
     
  16. fq4rkrel

    fq4rkrel Member

    Joined:
    Jan 7, 2017
    Messages:
    172
    Likes Received:
    2
    Much thanks!
     
  17. onk3lchen73

    onk3lchen73 Member

    Joined:
    Mar 12, 2019
    Messages:
    49
    Likes Received:
    7
  18. abcdefg

    abcdefg Active Member

    Joined:
    Feb 6, 2018
    Messages:
    391
    Likes Received:
    34