FEED MTV Video Music Awards 2013 9 performances 1080i HDTV 32 Mbps DTS-HD MA 5.1 4-2-2 MPEG2-TrollHD.ts

Discussion in 'HD Live Performances' started by KaiKawaii, Jan 27, 2018.

  1. KaiKawaii

    KaiKawaii Well-Known Member Uploader

    Joined:
    Jun 1, 2017
    Messages:
    583
    Likes Received:
    1,034
    MTV Video Music Awards 2013 9 performances 1080i HDTV 32 Mbps DTS-HD MA 5.1 4-2-2 MPEG2-TrollHD.ts

    [​IMG]

    [​IMG]
    Code:
    General
    ID                             : 1 (0x1)
    Complete name                  : D:\01 Lady Gaga - Applause - MTV Video Music Awards 2013 1080i HDTV 32 Mbps DTS-HD MA 5.1 4-2-2 MPEG2-TrollHD.ts
    Format                         : MPEG-TS
    File size                      : 1.39 GiB
    Duration                       : 5 min 20 s
    Overall bit rate mode          : Variable
    Overall bit rate               : 37.2 Mb/s
    
    Video
    ID                             : 4113 (0x1011)
    Menu ID                        : 1 (0x1)
    Format                         : MPEG Video
    Format version                 : Version 2
    Format profile                 : 4:2:2@High
    Format settings, BVOP          : Yes
    Format settings, Matrix        : Custom
    Format settings, GOP           : M=3, N=15
    Format settings, picture struc : Frame
    Codec ID                       : 2
    Duration                       : 5 min 20 s
    Bit rate mode                  : Variable
    Maximum bit rate               : 31.9 Mb/s
    Width                          : 1 920 pixels
    Height                         : 1 080 pixels
    Display aspect ratio           : 16:9
    Active Format Description      : Pillarbox 4:3 image
    Frame rate                     : 29.970 (30000/1001) FPS
    Color space                    : YUV
    Chroma subsampling             : 4:2:2
    Bit depth                      : 8 bits
    Scan type                      : Interlaced
    Scan order                     : Top Field First
    Compression mode               : Lossy
    Time code of first frame       : 00:31:13;03
    Time code source               : Group of pictures header
    GOP, Open/Closed               : Open
    Color primaries                : BT.709
    Transfer characteristics       : BT.709
    Matrix coefficients            : BT.709
    
    Audio #1
    ID                             : 4352 (0x1100)
    Menu ID                        : 1 (0x1)
    Format                         : DTS
    Format/Info                    : Digital Theater Systems
    Format profile                 : MA / Core
    Mode                           : 16
    Format settings, Endianness    : Big
    Muxing mode                    : Stream extension
    Codec ID                       : 134
    Duration                       : 5 min 20 s
    Bit rate mode                  : Variable / Constant
    Bit rate                       : Unknown / 1 509 kb/s
    Channel(s)                     : 6 channels
    Channel positions              : Front: L C R, Side: L R, LFE
    Sampling rate                  : 48.0 kHz
    Frame rate                     : 93.750 FPS (512 SPF)
    Bit depth                      : 24 bits
    Compression mode               : Lossless / Lossy
    Language                       : English
    
    Audio #2
    ID                             : 4353 (0x1101)
    Menu ID                        : 1 (0x1)
    Format                         : MPEG Audio
    Format version                 : Version 1
    Format profile                 : Layer 2
    Mode extension                 : Intensity Stereo + MS Stereo
    Codec ID                       : 4
    Duration                       : 5 min 20 s
    Bit rate mode                  : Constant
    Bit rate                       : 384 kb/s
    Channel(s)                     : 2 channels
    Sampling rate                  : 48.0 kHz
    Compression mode               : Lossy
    Delay relative to video        : 20 ms
    Stream size                    : 14.7 MiB (1%)
    Language                       : det
    Language, more info            : Clean effects

    [​IMG]
    Code:
    General
    ID                             : 1 (0x1)
    Complete name                  : D:\02 Miley Cyrus & Robin Thicke - We Can't Stop & Blurred Lines - MTV Video Music Awards 2013 1080i HDTV 32 Mbps DTS-HD MA 5.1 4-2-2 MPEG2-TrollHD.ts
    Format                         : MPEG-TS
    File size                      : 1.27 GiB
    Duration                       : 4 min 51 s
    Overall bit rate mode          : Variable
    Overall bit rate               : 37.3 Mb/s
    
    Video
    ID                             : 4113 (0x1011)
    Menu ID                        : 1 (0x1)
    Format                         : MPEG Video
    Format version                 : Version 2
    Format profile                 : 4:2:2@High
    Format settings, BVOP          : Yes
    Format settings, Matrix        : Custom
    Format settings, GOP           : M=3, N=15
    Format settings, picture struc : Frame
    Codec ID                       : 2
    Duration                       : 4 min 51 s
    Bit rate mode                  : Variable
    Maximum bit rate               : 31.9 Mb/s
    Width                          : 1 920 pixels
    Height                         : 1 080 pixels
    Display aspect ratio           : 16:9
    Active Format Description      : Pillarbox 4:3 image
    Frame rate                     : 29.970 (30000/1001) FPS
    Color space                    : YUV
    Chroma subsampling             : 4:2:2
    Bit depth                      : 8 bits
    Scan type                      : Interlaced
    Scan order                     : Top Field First
    Compression mode               : Lossy
    Time code of first frame       : 00:47:32;03
    Time code source               : Group of pictures header
    GOP, Open/Closed               : Open
    Color primaries                : BT.709
    Transfer characteristics       : BT.709
    Matrix coefficients            : BT.709
    
    Audio #1
    ID                             : 4352 (0x1100)
    Menu ID                        : 1 (0x1)
    Format                         : DTS
    Format/Info                    : Digital Theater Systems
    Format profile                 : MA / Core
    Mode                           : 16
    Format settings, Endianness    : Big
    Muxing mode                    : Stream extension
    Codec ID                       : 134
    Duration                       : 4 min 51 s
    Bit rate mode                  : Variable / Constant
    Bit rate                       : Unknown / 1 509 kb/s
    Channel(s)                     : 6 channels
    Channel positions              : Front: L C R, Side: L R, LFE
    Sampling rate                  : 48.0 kHz
    Frame rate                     : 93.750 FPS (512 SPF)
    Bit depth                      : 24 bits
    Compression mode               : Lossless / Lossy
    Delay relative to video        : 3 ms
    Language                       : English
    
    Audio #2
    ID                             : 4353 (0x1101)
    Menu ID                        : 1 (0x1)
    Format                         : MPEG Audio
    Format version                 : Version 1
    Format profile                 : Layer 2
    Mode extension                 : Intensity Stereo + MS Stereo
    Codec ID                       : 4
    Duration                       : 4 min 51 s
    Bit rate mode                  : Constant
    Bit rate                       : 384 kb/s
    Channel(s)                     : 2 channels
    Sampling rate                  : 48.0 kHz
    Compression mode               : Lossy
    Delay relative to video        : 10 ms
    Stream size                    : 13.3 MiB (1%)
    Language                       : det
    Language, more info            : Clean effects

    [​IMG]
    Code:
    General
    ID                             : 1 (0x1)
    Complete name                  : D:\03 Robin Thicke ft. 2 Chainz & Kendrick Lamar - MTV Video Music Awards 2013 1080i HDTV 32 Mbps DTS-HD MA 5.1 4-2-2 MPEG2-TrollHD.ts
    Format                         : MPEG-TS
    File size                      : 599 MiB
    Duration                       : 2 min 14 s
    Overall bit rate mode          : Variable
    Overall bit rate               : 37.3 Mb/s
    
    Video
    ID                             : 4113 (0x1011)
    Menu ID                        : 1 (0x1)
    Format                         : MPEG Video
    Format version                 : Version 2
    Format profile                 : 4:2:2@High
    Format settings, BVOP          : Yes
    Format settings, Matrix        : Custom
    Format settings, GOP           : M=3, N=15
    Format settings, picture struc : Frame
    Codec ID                       : 2
    Duration                       : 2 min 14 s
    Bit rate mode                  : Variable
    Maximum bit rate               : 31.9 Mb/s
    Width                          : 1 920 pixels
    Height                         : 1 080 pixels
    Display aspect ratio           : 16:9
    Active Format Description      : Pillarbox 4:3 image
    Frame rate                     : 29.970 (30000/1001) FPS
    Color space                    : YUV
    Chroma subsampling             : 4:2:2
    Bit depth                      : 8 bits
    Scan type                      : Interlaced
    Scan order                     : Top Field First
    Compression mode               : Lossy
    Time code of first frame       : 00:52:23;26
    Time code source               : Group of pictures header
    GOP, Open/Closed               : Open
    Color primaries                : BT.709
    Transfer characteristics       : BT.709
    Matrix coefficients            : BT.709
    
    Audio #1
    ID                             : 4352 (0x1100)
    Menu ID                        : 1 (0x1)
    Format                         : DTS
    Format/Info                    : Digital Theater Systems
    Format profile                 : MA / Core
    Mode                           : 16
    Format settings, Endianness    : Big
    Muxing mode                    : Stream extension
    Codec ID                       : 134
    Duration                       : 2 min 14 s
    Bit rate mode                  : Variable / Constant
    Bit rate                       : Unknown / 1 509 kb/s
    Channel(s)                     : 6 channels
    Channel positions              : Front: L C R, Side: L R, LFE
    Sampling rate                  : 48.0 kHz
    Frame rate                     : 93.750 FPS (512 SPF)
    Bit depth                      : 24 bits
    Compression mode               : Lossless / Lossy
    Delay relative to video        : 9 ms
    Language                       : English
    
    Audio #2
    ID                             : 4353 (0x1101)
    Menu ID                        : 1 (0x1)
    Format                         : MPEG Audio
    Format version                 : Version 1
    Format profile                 : Layer 2
    Mode extension                 : Intensity Stereo + MS Stereo
    Codec ID                       : 4
    Duration                       : 2 min 14 s
    Bit rate mode                  : Constant
    Bit rate                       : 384 kb/s
    Channel(s)                     : 2 channels
    Sampling rate                  : 48.0 kHz
    Compression mode               : Lossy
    Delay relative to video        : 10 ms
    Stream size                    : 6.15 MiB (1%)
    Language                       : det
    Language, more info            : Clean effects

    [​IMG]
    Code:
    General
    ID                             : 1 (0x1)
    Complete name                  : D:\04 Kanye West - Blood on the Leaves - MTV Video Music Awards 2013 1080i HDTV 32 Mbps DTS-HD MA 5.1 4-2-2 MPEG2-TrollHD.ts
    Format                         : MPEG-TS
    File size                      : 997 MiB
    Duration                       : 4 min 20 s
    Overall bit rate mode          : Variable
    Overall bit rate               : 32.1 Mb/s
    
    Video
    ID                             : 4113 (0x1011)
    Menu ID                        : 1 (0x1)
    Format                         : MPEG Video
    Format version                 : Version 2
    Format profile                 : 4:2:2@High
    Format settings, BVOP          : Yes
    Format settings, Matrix        : Custom
    Format settings, GOP           : M=3, N=15
    Format settings, picture struc : Frame
    Codec ID                       : 2
    Duration                       : 4 min 19 s
    Bit rate mode                  : Variable
    Maximum bit rate               : 31.9 Mb/s
    Width                          : 1 920 pixels
    Height                         : 1 080 pixels
    Display aspect ratio           : 16:9
    Active Format Description      : Pillarbox 4:3 image
    Frame rate                     : 29.970 (30000/1001) FPS
    Color space                    : YUV
    Chroma subsampling             : 4:2:2
    Bit depth                      : 8 bits
    Scan type                      : Interlaced
    Scan order                     : Top Field First
    Compression mode               : Lossy
    Time code of first frame       : 01:08:25;26
    Time code source               : Group of pictures header
    GOP, Open/Closed               : Open
    Color primaries                : BT.709
    Transfer characteristics       : BT.709
    Matrix coefficients            : BT.709
    
    Audio #1
    ID                             : 4352 (0x1100)
    Menu ID                        : 1 (0x1)
    Format                         : DTS
    Format/Info                    : Digital Theater Systems
    Format profile                 : MA / Core
    Mode                           : 16
    Format settings, Endianness    : Big
    Muxing mode                    : Stream extension
    Codec ID                       : 134
    Duration                       : 4 min 20 s
    Bit rate mode                  : Variable / Constant
    Bit rate                       : Unknown / 1 509 kb/s
    Channel(s)                     : 6 channels
    Channel positions              : Front: L C R, Side: L R, LFE
    Sampling rate                  : 48.0 kHz
    Frame rate                     : 93.750 FPS (512 SPF)
    Bit depth                      : 24 bits
    Compression mode               : Lossless / Lossy
    Delay relative to video        : 2 ms
    Language                       : English
    
    Audio #2
    ID                             : 4353 (0x1101)
    Menu ID                        : 1 (0x1)
    Format                         : MPEG Audio
    Format version                 : Version 1
    Format profile                 : Layer 2
    Mode extension                 : Intensity Stereo + MS Stereo
    Codec ID                       : 4
    Duration                       : 4 min 20 s
    Bit rate mode                  : Constant
    Bit rate                       : 384 kb/s
    Channel(s)                     : 2 channels
    Sampling rate                  : 48.0 kHz
    Compression mode               : Lossy
    Delay relative to video        : 6 ms
    Stream size                    : 11.9 MiB (1%)
    Language                       : det
    Language, more info            : Clean effects

    [​IMG]
    Code:
    General
    ID                             : 1 (0x1)
    Complete name                  : D:\05 Justin Timberlake - Medley & Vanguard Award - MTV Video Music Awards 2013 1080i HDTV 32 Mbps DTS-HD MA 5.1 4-2-2 MPEG2-TrollHD.ts
    Format                         : MPEG-TS
    File size                      : 5.41 GiB
    Duration                       : 20 min 58 s
    Overall bit rate mode          : Variable
    Overall bit rate               : 36.9 Mb/s
    
    Video
    ID                             : 4113 (0x1011)
    Menu ID                        : 1 (0x1)
    Format                         : MPEG Video
    Format version                 : Version 2
    Format profile                 : 4:2:2@High
    Format settings, BVOP          : Yes
    Format settings, Matrix        : Custom
    Format settings, GOP           : M=3, N=15
    Format settings, picture struc : Frame
    Codec ID                       : 2
    Duration                       : 20 min 58 s
    Bit rate mode                  : Variable
    Maximum bit rate               : 31.9 Mb/s
    Width                          : 1 920 pixels
    Height                         : 1 080 pixels
    Display aspect ratio           : 16:9
    Active Format Description      : Pillarbox 4:3 image
    Frame rate                     : 29.970 (30000/1001) FPS
    Color space                    : YUV
    Chroma subsampling             : 4:2:2
    Bit depth                      : 8 bits
    Scan type                      : Interlaced
    Scan order                     : Top Field First
    Compression mode               : Lossy
    Time code of first frame       : 01:30:34;19
    Time code source               : Group of pictures header
    GOP, Open/Closed               : Open
    Color primaries                : BT.709
    Transfer characteristics       : BT.709
    Matrix coefficients            : BT.709
    
    Audio #1
    ID                             : 4352 (0x1100)
    Menu ID                        : 1 (0x1)
    Format                         : DTS
    Format/Info                    : Digital Theater Systems
    Format profile                 : MA / Core
    Mode                           : 16
    Format settings, Endianness    : Big
    Muxing mode                    : Stream extension
    Codec ID                       : 134
    Duration                       : 20 min 58 s
    Bit rate mode                  : Variable / Constant
    Bit rate                       : Unknown / 1 509 kb/s
    Channel(s)                     : 6 channels
    Channel positions              : Front: L C R, Side: L R, LFE
    Sampling rate                  : 48.0 kHz
    Frame rate                     : 93.750 FPS (512 SPF)
    Bit depth                      : 24 bits
    Compression mode               : Lossless / Lossy
    Delay relative to video        : 9 ms
    Language                       : English
    
    Audio #2
    ID                             : 4353 (0x1101)
    Menu ID                        : 1 (0x1)
    Format                         : MPEG Audio
    Format version                 : Version 1
    Format profile                 : Layer 2
    Mode extension                 : Intensity Stereo + MS Stereo
    Codec ID                       : 4
    Duration                       : 20 min 58 s
    Bit rate mode                  : Constant
    Bit rate                       : 384 kb/s
    Channel(s)                     : 2 channels
    Sampling rate                  : 48.0 kHz
    Compression mode               : Lossy
    Delay relative to video        : 8 ms
    Stream size                    : 57.6 MiB (1%)
    Language                       : det
    Language, more info            : Clean effects

    [​IMG]
    Code:
    General
    ID                             : 1 (0x1)
    Complete name                  : D:\06 Macklemore & Ryan Lewis, Mary Lambert & Jennifer Hudson - Same Love - MTV Video Music Awards 2013 1080i HDTV 32 Mbps DTS-HD MA 5.1 4-2-2 MPEG2-TrollHD.ts
    Format                         : MPEG-TS
    File size                      : 1.57 GiB
    Duration                       : 6 min 7 s
    Overall bit rate mode          : Variable
    Overall bit rate               : 36.7 Mb/s
    
    Video
    ID                             : 4113 (0x1011)
    Menu ID                        : 1 (0x1)
    Format                         : MPEG Video
    Format version                 : Version 2
    Format profile                 : 4:2:2@High
    Format settings, BVOP          : Yes
    Format settings, Matrix        : Custom
    Format settings, GOP           : M=3, N=15
    Format settings, picture struc : Frame
    Codec ID                       : 2
    Duration                       : 6 min 7 s
    Bit rate mode                  : Variable
    Maximum bit rate               : 31.9 Mb/s
    Width                          : 1 920 pixels
    Height                         : 1 080 pixels
    Display aspect ratio           : 16:9
    Active Format Description      : Pillarbox 4:3 image
    Frame rate                     : 29.970 (30000/1001) FPS
    Color space                    : YUV
    Chroma subsampling             : 4:2:2
    Bit depth                      : 8 bits
    Scan type                      : Interlaced
    Scan order                     : Top Field First
    Compression mode               : Lossy
    Time code of first frame       : 02:02:56;17
    Time code source               : Group of pictures header
    GOP, Open/Closed               : Open
    Color primaries                : BT.709
    Transfer characteristics       : BT.709
    Matrix coefficients            : BT.709
    
    Audio #1
    ID                             : 4352 (0x1100)
    Menu ID                        : 1 (0x1)
    Format                         : DTS
    Format/Info                    : Digital Theater Systems
    Format profile                 : MA / Core
    Mode                           : 16
    Format settings, Endianness    : Big
    Muxing mode                    : Stream extension
    Codec ID                       : 134
    Duration                       : 6 min 7 s
    Bit rate mode                  : Variable / Constant
    Bit rate                       : Unknown / 1 509 kb/s
    Channel(s)                     : 6 channels
    Channel positions              : Front: L C R, Side: L R, LFE
    Sampling rate                  : 48.0 kHz
    Frame rate                     : 93.750 FPS (512 SPF)
    Bit depth                      : 24 bits
    Compression mode               : Lossless / Lossy
    Delay relative to video        : 5 ms
    Language                       : English
    
    Audio #2
    ID                             : 4353 (0x1101)
    Menu ID                        : 1 (0x1)
    Format                         : MPEG Audio
    Format version                 : Version 1
    Format profile                 : Layer 2
    Mode extension                 : Intensity Stereo + MS Stereo
    Codec ID                       : 4
    Duration                       : 6 min 7 s
    Bit rate mode                  : Constant
    Bit rate                       : 384 kb/s
    Channel(s)                     : 2 channels
    Sampling rate                  : 48.0 kHz
    Compression mode               : Lossy
    Delay relative to video        : 9 ms
    Stream size                    : 16.8 MiB (1%)
    Language                       : det
    Language, more info            : Clean effects

    [​IMG]
    Code:
    General
    ID                             : 1 (0x1)
    Complete name                  : D:\07 Drake - Hold On, We're Going Home & Started from thr Bottom - MTV Video Music Awards 2013 1080i HDTV 32 Mbps DTS-HD MA 5.1 4-2-2 MPEG2-TrollHD.ts
    Format                         : MPEG-TS
    File size                      : 1.11 GiB
    Duration                       : 4 min 18 s
    Overall bit rate mode          : Variable
    Overall bit rate               : 37.0 Mb/s
    
    Video
    ID                             : 4113 (0x1011)
    Menu ID                        : 1 (0x1)
    Format                         : MPEG Video
    Format version                 : Version 2
    Format profile                 : 4:2:2@High
    Format settings, BVOP          : Yes
    Format settings, Matrix        : Custom
    Format settings, GOP           : M=3, N=15
    Format settings, picture struc : Frame
    Codec ID                       : 2
    Duration                       : 4 min 17 s
    Bit rate mode                  : Variable
    Maximum bit rate               : 31.9 Mb/s
    Width                          : 1 920 pixels
    Height                         : 1 080 pixels
    Display aspect ratio           : 16:9
    Active Format Description      : Pillarbox 4:3 image
    Frame rate                     : 29.970 (30000/1001) FPS
    Color space                    : YUV
    Chroma subsampling             : 4:2:2
    Bit depth                      : 8 bits
    Scan type                      : Interlaced
    Scan order                     : Top Field First
    Compression mode               : Lossy
    Time code of first frame       : 02:16:33;13
    Time code source               : Group of pictures header
    GOP, Open/Closed               : Open
    Color primaries                : BT.709
    Transfer characteristics       : BT.709
    Matrix coefficients            : BT.709
    
    Audio #1
    ID                             : 4352 (0x1100)
    Menu ID                        : 1 (0x1)
    Format                         : DTS
    Format/Info                    : Digital Theater Systems
    Format profile                 : MA / Core
    Mode                           : 16
    Format settings, Endianness    : Big
    Muxing mode                    : Stream extension
    Codec ID                       : 134
    Duration                       : 4 min 18 s
    Bit rate mode                  : Variable / Constant
    Bit rate                       : Unknown / 1 509 kb/s
    Channel(s)                     : 6 channels
    Channel positions              : Front: L C R, Side: L R, LFE
    Sampling rate                  : 48.0 kHz
    Frame rate                     : 93.750 FPS (512 SPF)
    Bit depth                      : 24 bits
    Compression mode               : Lossless / Lossy
    Delay relative to video        : 4 ms
    Language                       : English
    
    Audio #2
    ID                             : 4353 (0x1101)
    Menu ID                        : 1 (0x1)
    Format                         : MPEG Audio
    Format version                 : Version 1
    Format profile                 : Layer 2
    Mode extension                 : Intensity Stereo + MS Stereo
    Codec ID                       : 4
    Duration                       : 4 min 18 s
    Bit rate mode                  : Constant
    Bit rate                       : 384 kb/s
    Channel(s)                     : 2 channels
    Sampling rate                  : 48.0 kHz
    Compression mode               : Lossy
    Delay relative to video        : 16 ms
    Stream size                    : 11.8 MiB (1%)
    Language                       : det
    Language, more info            : Clean effects
    

    [​IMG]
    Code:
    General
    ID                             : 1 (0x1)
    Complete name                  : D:\08 Bruno Mars - Gorilla - MTV Video Music Awards 2013 1080i HDTV 32 Mbps DTS-HD MA 5.1 4-2-2 MPEG2-TrollHD.ts
    Format                         : MPEG-TS
    File size                      : 1.44 GiB
    Duration                       : 5 min 34 s
    Overall bit rate mode          : Variable
    Overall bit rate               : 37.0 Mb/s
    
    Video
    ID                             : 4113 (0x1011)
    Menu ID                        : 1 (0x1)
    Format                         : MPEG Video
    Format version                 : Version 2
    Format profile                 : 4:2:2@High
    Format settings, BVOP          : Yes
    Format settings, Matrix        : Custom
    Format settings, GOP           : M=3, N=15
    Format settings, picture struc : Frame
    Codec ID                       : 2
    Duration                       : 5 min 33 s
    Bit rate mode                  : Variable
    Maximum bit rate               : 31.9 Mb/s
    Width                          : 1 920 pixels
    Height                         : 1 080 pixels
    Display aspect ratio           : 16:9
    Active Format Description      : Pillarbox 4:3 image
    Frame rate                     : 29.970 (30000/1001) FPS
    Color space                    : YUV
    Chroma subsampling             : 4:2:2
    Bit depth                      : 8 bits
    Scan type                      : Interlaced
    Scan order                     : Top Field First
    Compression mode               : Lossy
    Time code of first frame       : 02:34:40;15
    Time code source               : Group of pictures header
    GOP, Open/Closed               : Open
    Color primaries                : BT.709
    Transfer characteristics       : BT.709
    Matrix coefficients            : BT.709
    
    Audio #1
    ID                             : 4352 (0x1100)
    Menu ID                        : 1 (0x1)
    Format                         : DTS
    Format/Info                    : Digital Theater Systems
    Format profile                 : MA / Core
    Mode                           : 16
    Format settings, Endianness    : Big
    Muxing mode                    : Stream extension
    Codec ID                       : 134
    Duration                       : 5 min 34 s
    Bit rate mode                  : Variable / Constant
    Bit rate                       : Unknown / 1 509 kb/s
    Channel(s)                     : 6 channels
    Channel positions              : Front: L C R, Side: L R, LFE
    Sampling rate                  : 48.0 kHz
    Frame rate                     : 93.750 FPS (512 SPF)
    Bit depth                      : 24 bits
    Compression mode               : Lossless / Lossy
    Delay relative to video        : 1 ms
    Language                       : English
    
    Audio #2
    ID                             : 4353 (0x1101)
    Menu ID                        : 1 (0x1)
    Format                         : MPEG Audio
    Format version                 : Version 1
    Format profile                 : Layer 2
    Mode extension                 : Intensity Stereo + MS Stereo
    Codec ID                       : 4
    Duration                       : 5 min 34 s
    Bit rate mode                  : Constant
    Bit rate                       : 384 kb/s
    Channel(s)                     : 2 channels
    Sampling rate                  : 48.0 kHz
    Compression mode               : Lossy
    Delay relative to video        : 16 ms
    Stream size                    : 15.3 MiB (1%)
    Language                       : det
    Language, more info            : Clean effects
    

    [​IMG]
    Code:
    General
    ID                             : 1 (0x1)
    Complete name                  : D:\09 Katy Perry - Roar - MTV Video Music Awards 2013 1080i HDTV 32 Mbps DTS-HD MA 5.1 4-2-2 MPEG2-TrollHD.ts
    Format                         : MPEG-TS
    File size                      : 1.24 GiB
    Duration                       : 4 min 49 s
    Overall bit rate mode          : Variable
    Overall bit rate               : 36.8 Mb/s
    
    Video
    ID                             : 4113 (0x1011)
    Menu ID                        : 1 (0x1)
    Format                         : MPEG Video
    Format version                 : Version 2
    Format profile                 : 4:2:2@High
    Format settings, BVOP          : Yes
    Format settings, Matrix        : Custom
    Format settings, GOP           : M=3, N=15
    Format settings, picture struc : Frame
    Codec ID                       : 2
    Duration                       : 4 min 49 s
    Bit rate mode                  : Variable
    Maximum bit rate               : 31.9 Mb/s
    Width                          : 1 920 pixels
    Height                         : 1 080 pixels
    Display aspect ratio           : 16:9
    Active Format Description      : Pillarbox 4:3 image
    Frame rate                     : 29.970 (30000/1001) FPS
    Color space                    : YUV
    Chroma subsampling             : 4:2:2
    Bit depth                      : 8 bits
    Scan type                      : Interlaced
    Scan order                     : Top Field First
    Compression mode               : Lossy
    Time code of first frame       : 02:49:08;13
    Time code source               : Group of pictures header
    GOP, Open/Closed               : Open
    Color primaries                : BT.709
    Transfer characteristics       : BT.709
    Matrix coefficients            : BT.709
    
    Audio #1
    ID                             : 4352 (0x1100)
    Menu ID                        : 1 (0x1)
    Format                         : DTS
    Format/Info                    : Digital Theater Systems
    Format profile                 : MA / Core
    Mode                           : 16
    Format settings, Endianness    : Big
    Muxing mode                    : Stream extension
    Codec ID                       : 134
    Duration                       : 4 min 49 s
    Bit rate mode                  : Variable / Constant
    Bit rate                       : Unknown / 1 509 kb/s
    Channel(s)                     : 6 channels
    Channel positions              : Front: L C R, Side: L R, LFE
    Sampling rate                  : 48.0 kHz
    Frame rate                     : 93.750 FPS (512 SPF)
    Bit depth                      : 24 bits
    Compression mode               : Lossless / Lossy
    Delay relative to video        : 8 ms
    Language                       : English
    
    Audio #2
    ID                             : 4353 (0x1101)
    Menu ID                        : 1 (0x1)
    Format                         : MPEG Audio
    Format version                 : Version 1
    Format profile                 : Layer 2
    Mode extension                 : Intensity Stereo + MS Stereo
    Codec ID                       : 4
    Duration                       : 4 min 49 s
    Bit rate mode                  : Constant
    Bit rate                       : 384 kb/s
    Channel(s)                     : 2 channels
    Sampling rate                  : 48.0 kHz
    Compression mode               : Lossy
    Delay relative to video        : 1 ms
    Stream size                    : 13.3 MiB (1%)
    Language                       : det
    Language, more info            : Clean effects

    Hidden Content:
    You must reply before you can see the hidden data contained here.
    Credits to the original capper :)
     
  2. Loading...


  3. JustinTimberlake

    JustinTimberlake Member

    Joined:
    Jan 1, 2017
    Messages:
    248
    Likes Received:
    10
  4. dersullana

    dersullana Well-Known Member

    Joined:
    Dec 21, 2015
    Messages:
    1,185
    Likes Received:
    56
  5. exterminador

    exterminador Well-Known Member

    Joined:
    Jul 3, 2016
    Messages:
    2,569
    Likes Received:
    214
  6. Grizzly3101

    Grizzly3101 Member

    Joined:
    Nov 30, 2016
    Messages:
    186
    Likes Received:
    20
    s
    thank
     
  7. Thassyo

    Thassyo Well-Known Member

    Joined:
    Oct 9, 2013
    Messages:
    2,917
    Likes Received:
    1,319
    Thanks!
     
  8. orionN

    orionN Active Member

    Joined:
    Jan 26, 2018
    Messages:
    780
    Likes Received:
    41
    thanks friend
     
  9. thinkingdualipa

    thinkingdualipa Active Member

    Joined:
    Jun 26, 2017
    Messages:
    442
    Likes Received:
    29
    thank youuu
     
  10. kiiwii

    kiiwii Member

    Joined:
    Oct 10, 2013
    Messages:
    393
    Likes Received:
    10
    thanks
     
  11. Adaros

    Adaros Active Member

    Joined:
    Jun 5, 2016
    Messages:
    753
    Likes Received:
    96
    Thanks
     
  12. femmemonsters

    femmemonsters Active Member

    Joined:
    Oct 8, 2015
    Messages:
    865
    Likes Received:
    42
  13. xabieroyo

    xabieroyo Active Member

    Joined:
    May 30, 2017
    Messages:
    178
    Likes Received:
    103
    rooooarrrr
     
  14. zetton

    zetton Member

    Joined:
    Nov 7, 2016
    Messages:
    86
    Likes Received:
    3
    thanks!! i find this
     
  15. miguelmr87

    miguelmr87 Well-Known Member

    Joined:
    Dec 20, 2013
    Messages:
    1,947
    Likes Received:
    373
    thank you
     
  16. robenn

    robenn Active Member

    Joined:
    May 29, 2014
    Messages:
    694
    Likes Received:
    76
    Thank you!
     
  17. jb13

    jb13 Member

    Joined:
    Oct 24, 2017
    Messages:
    394
    Likes Received:
    12
    gracias
     
  18. Pavulon

    Pavulon Well-Known Member Donor

    Joined:
    Mar 22, 2016
    Messages:
    4,668
    Likes Received:
    1,031
    thanks
     
  19. RKCONCERTS

    RKCONCERTS Member

    Joined:
    Jun 14, 2016
    Messages:
    142
    Likes Received:
    4
  20. benja

    benja Well-Known Member

    Joined:
    Jan 8, 2014
    Messages:
    1,634
    Likes Received:
    105
    Thank you
     
  21. mcslimshady

    mcslimshady Well-Known Member

    Joined:
    Jun 20, 2016
    Messages:
    2,126
    Likes Received:
    55